<?xml version="1.0" standalone="no"?>
<!DOCTYPE svg PUBLIC "-//W3C//DTD SVG 1.1//EN" "http://www.w3.org/Graphics/SVG/1.1/DTD/svg11.dtd" >
<svg>
<metadata>
Created by FontForge 20090914 at Wed Oct  4 15:25:33 2017
 By www-data
Typeface &#194;&#169; (your company). 2017. All Rights Reserved
</metadata>
<defs>
<font id="https-font" horiz-adv-x="1014" >
  <font-face 
    font-family="https-font"
    font-weight="400"
    font-stretch="normal"
    units-per-em="2048"
    panose-1="2 0 5 0 0 0 0 0 0 0"
    ascent="1638"
    descent="-410"
    bbox="-342 -418.003 2194 1733"
    underline-thickness="150"
    underline-position="-142"
    unicode-range="U+0020-U+F002"
  />
<missing-glyph horiz-adv-x="1024" 
d="M100 0v1434h824v-1434h-824zM150 50h724v1334h-724v-1334zM325 1148c20.667 18.667 40.002 32.998 58.002 42.998c35.333 20 72.666 30 111.999 30c61.333 0 110.666 -15.833 147.999 -47.5s56 -74.167 56 -127.5c0 -32.667 -7.66699 -65.5 -23 -98.5
s-44.333 -76.167 -87 -129.5c-42 -53.333 -75 -97.333 -99 -132s-36 -67.667 -36 -99c0 -25.333 8 -69.666 24 -132.999h-32c-23.333 64.667 -35 114 -35 148c0 50.667 27.167 123.334 81.5 218.001s81.5 167 81.5 217c0 38 -11 68 -33 90s-52.333 33 -91 33
c-25.333 0 -48.333 -5.66699 -69 -17c-17.333 -10 -36 -23.333 -56 -40v45zM389.002 333.998l57 57.999c7.33301 6.66699 14 10 20 10c6.66699 0 14 -3.66699 22 -11l56 -60c6 -7.33301 9 -14 9 -20c0 -7.33301 -3.33301 -14.666 -10 -21.999l-56 -62
c-9.33301 -9.33301 -16.333 -14 -21 -14c-7.33301 0 -14 3.33301 -20 10l-61 71c-4.66699 6 -7 12 -7 18c0 6.66699 3.66699 14 11 22z" />
    <glyph glyph-name=".notdef" horiz-adv-x="1024" 
d="M100 0v1434h824v-1434h-824zM150 50h724v1334h-724v-1334zM325 1148c20.667 18.667 40.002 32.998 58.002 42.998c35.333 20 72.666 30 111.999 30c61.333 0 110.666 -15.833 147.999 -47.5s56 -74.167 56 -127.5c0 -32.667 -7.66699 -65.5 -23 -98.5
s-44.333 -76.167 -87 -129.5c-42 -53.333 -75 -97.333 -99 -132s-36 -67.667 -36 -99c0 -25.333 8 -69.666 24 -132.999h-32c-23.333 64.667 -35 114 -35 148c0 50.667 27.167 123.334 81.5 218.001s81.5 167 81.5 217c0 38 -11 68 -33 90s-52.333 33 -91 33
c-25.333 0 -48.333 -5.66699 -69 -17c-17.333 -10 -36 -23.333 -56 -40v45zM389.002 333.998l57 57.999c7.33301 6.66699 14 10 20 10c6.66699 0 14 -3.66699 22 -11l56 -60c6 -7.33301 9 -14 9 -20c0 -7.33301 -3.33301 -14.666 -10 -21.999l-56 -62
c-9.33301 -9.33301 -16.333 -14 -21 -14c-7.33301 0 -14 3.33301 -20 10l-61 71c-4.66699 6 -7 12 -7 18c0 6.66699 3.66699 14 11 22z" />
    <glyph glyph-name="space" unicode=" " horiz-adv-x="508" 
 />
    <glyph glyph-name="space" unicode="&#xa0;" horiz-adv-x="508" 
 />
    <glyph glyph-name="exclam" unicode="!" horiz-adv-x="672" 
d="M313 328l-49 1036c0 30.667 7 53.667 21 69s34.667 23 62 23c28 0 48.833 -7.66699 62.5 -23s20.5 -38.333 20.5 -69l-80 -1036h-37zM223 167l82.001 84c10 9.33301 19.667 14 29 14c8.66699 0 19 -5.33301 31 -16l80 -86c8 -10.667 12 -20.334 12 -29.001
c0 -10 -4.66699 -20.333 -14 -31l-80 -88c-13.333 -13.333 -23 -20 -29 -20c-10.667 0 -20.334 4.66699 -29.001 14l-88 101c-6.66699 8.66699 -10 17.334 -10 26.001c0 10 5.33301 20.333 16 31z" />
    <glyph glyph-name="quotedbl" unicode="&#x22;" horiz-adv-x="672" 
d="M197 1108l-30 -0.000976562l-62 359c-2.66699 15.333 -4 26.333 -4 33c0 24.667 6.83301 43.667 20.5 57s33.5 20 59.5 20s46.167 -6.5 60.5 -19.5s21.5 -31.833 21.5 -56.5c0 -5.33301 -1.33301 -16.666 -4 -33.999zM509 1108l-30 -0.000976562l-62 359
c-2.66699 15.333 -4 26.333 -4 33c0 24.667 6.83301 43.667 20.5 57s33.5 20 59.5 20s46.167 -6.5 60.5 -19.5s21.5 -31.833 21.5 -56.5c0 -5.33301 -1.33301 -16.666 -4 -33.999z" />
    <glyph glyph-name="numbersign" unicode="#" horiz-adv-x="1336" 
d="M596 859l-85 -290h242l86 290h-243zM673 1434h93l-141 -477h242l142 477h92l-141 -477h259l-29 -97h-259l-83 -290h279l-30 -98h-280l-140 -472h-92l139 472h-240l-142 -472h-92l140 472h-273l30 98h271l86 290h-295l29 97h295z" />
    <glyph glyph-name="dollar" unicode="$" 
d="M577 1552l0.00195312 -102c45.333 -5.33301 92.333 -17 141 -35c6.66699 -4 13 -6 19 -6c16.667 0 30.334 15 41.001 45h50l103 -282h-49c-40 89.333 -96 149 -168 179c-49.333 20 -95 33 -137 39v-540c160.667 -62 268.167 -123 322.5 -183s81.5 -148 81.5 -264
c0 -131.333 -39.833 -231.333 -119.5 -300s-174.5 -108.667 -284.5 -120v-239h-73v237c-125.333 2 -214 14.667 -266 38c-6.66699 4 -13 6 -19 6c-16.667 0 -30.334 -15 -41.001 -45h-50v331h49c33.333 -122 84.166 -197.333 152.499 -226s126.5 -43 174.5 -43v635
c-142.667 44.667 -242.334 95.667 -299.001 153c-61.333 60.667 -92 143.667 -92 249c0 110.667 41.667 201 125 271c70 58.667 158.667 92.667 266 102v100h73zM577.002 655l-0.000976562 -609.999c83.333 11.333 153.833 43.333 211.5 96s86.5 125.667 86.5 219
c0 77.333 -23 138.333 -69 183c-41.333 39.333 -117.666 76.666 -228.999 111.999zM504.001 873.001l-0.00195312 520.001c-79.333 -3.33301 -145.666 -27.333 -198.999 -72c-57.333 -48.667 -86 -109.334 -86 -182.001c0 -65.333 18.333 -116.333 55 -153
c34.667 -36 111.334 -73.667 230.001 -113z" />
    <glyph glyph-name="percent" unicode="%" horiz-adv-x="1610" 
d="M449 1459c65.333 0 128.833 -16.333 190.5 -49s109.834 -79.167 144.501 -139.5s52 -123.833 52 -190.5c0 -66 -16.833 -128.833 -50.5 -188.5s-81.334 -106.334 -143.001 -140.001s-126.167 -50.5 -193.5 -50.5c-66.667 0 -130.834 16.833 -192.501 50.5
s-109.5 80.334 -143.5 140.001s-51 122.5 -51 188.5c0 66.667 17.333 130.167 52 190.5s82.834 106.833 144.501 139.5s125.167 49 190.5 49zM206 1066c8.66699 -61.333 27.168 -119.165 55.501 -173.498s63.833 -95.833 106.5 -124.5c38 -26.667 76 -40 114 -40
c4.66699 0 9 0.333008 13 1c42 2 80.333 19.667 115 53s59 78.666 73 135.999c8.66699 36 13 73 13 111c0 21.333 -1.33301 43 -4 65c-8 62 -26.667 120.5 -56 175.5s-65 96.5 -107 124.5c-38.667 25.333 -77 38 -115 38h-11c-40.667 -2 -78.334 -19.333 -113.001 -52
s-59 -77.667 -73 -135c-10 -38.667 -15 -77.667 -15 -117c0 -20.667 1.33301 -41.334 4 -62.001zM297.001 -28.999l940 1461h84l-938 -1461h-86zM1161 738.001c64.667 0 127.999 -16.5 189.999 -49.5s110.333 -79.667 145 -140s52 -123.5 52 -189.5
c0 -66.667 -16.833 -129.834 -50.5 -189.501s-81.334 -106.167 -143.001 -139.5s-126.167 -50 -193.5 -50s-131.666 16.667 -192.999 50s-109 79.833 -143 139.5s-51 122.834 -51 189.501c0 66 17.333 129.167 52 189.5s82.834 107 144.501 140s125.167 49.5 190.5 49.5z
M918 344.001c8.66699 -61.333 27.168 -119.165 55.501 -173.498s63.833 -95.833 106.5 -124.5c39.333 -26 78 -39 116 -39h11c42 2 80.333 19.667 115 53s59 78.666 73 135.999c8.66699 36 13 73 13 111c0 21.333 -1.33301 43 -4 65c-8 62 -26.667 120.5 -56 175.5
s-65 96.5 -107 124.5c-38.667 25.333 -77 38 -115 38h-11c-40.667 -2 -78.334 -19.333 -113.001 -52s-59 -77.667 -73 -135c-10 -38.667 -15 -77.667 -15 -117c0 -20.667 1.33301 -41.334 4 -62.001z" />
    <glyph glyph-name="ampersand" unicode="&#x26;" horiz-adv-x="1683" 
d="M1051 196l-554 682.998c-78.667 0 -138.5 -28.667 -179.5 -86s-61.5 -125.333 -61.5 -204c0 -60.667 11.833 -121.167 35.5 -181.5s57.5 -115.166 101.5 -164.499c48 -55.333 103 -97.666 165 -126.999s126.667 -44 194 -44c58.667 0 115 11.167 169 33.5
s97.333 52.5 130 90.5zM1394 -0.00195312c-37.333 0 -83.666 8.33398 -138.999 25.001s-111 60.667 -167 132c-44.667 -49.333 -103 -90.5 -175 -123.5s-152.333 -49.5 -241 -49.5c-152.667 0 -277.5 50.167 -374.5 150.5s-145.5 228.833 -145.5 385.5
c0 107.333 25.333 196.166 76 266.499s125.667 120.833 225 151.5c-28 40.667 -48.833 79.334 -62.5 116.001s-20.5 73.667 -20.5 111c0 70 25.667 135.667 77 197s112 92 182 92c45.333 0 92.666 -13 141.999 -39c6 -4 12 -6 18 -6c15.333 0 28 15 38 45h46l96 -281h-46
c-36.667 88.667 -88.334 148 -155.001 178c-56.667 24.667 -103.667 37 -141 37c-43.333 0 -78.666 -15.167 -105.999 -45.5s-41 -69.5 -41 -117.5c0 -87.333 34 -176.333 102 -267l531 -670c65.333 97.333 105.666 178.666 120.999 243.999c11.333 52 17 95.333 17 130
c0 64.667 -20.667 97 -62 97h-90v50h443v-50h-90c-63.333 0 -111.666 -75.667 -144.999 -227c-20.667 -88 -72.334 -185.333 -155.001 -292c72.667 -90.667 155.334 -136 248.001 -136h16c95.333 11.333 159.333 54 192 128l49 -1l-103 -231h-160z" />
    <glyph glyph-name="quotesingle" unicode="'" horiz-adv-x="346" 
d="M197 1108l-30 -0.000976562l-62 359c-2.66699 15.333 -4 26.333 -4 33c0 24.667 6.83301 43.667 20.5 57s33.5 20 59.5 20s46.167 -6.5 60.5 -19.5s21.5 -31.833 21.5 -56.5c0 -5.33301 -1.33301 -16.666 -4 -33.999z" />
    <glyph glyph-name="parenleft" unicode="(" horiz-adv-x="758" 
d="M252 601c1.33301 184.667 34.5 361.333 99.5 530s154.5 316 268.5 442h80c-114.667 -161.333 -191.334 -307.333 -230.001 -438c-38 -128.667 -57 -303 -57 -523v-22c0 -220 19 -394 57 -522c38.667 -130.667 115.334 -276.667 230.001 -438h-80
c-114 126 -203.5 273.167 -268.5 441.5s-98.167 344.833 -99.5 529.5z" />
    <glyph glyph-name="parenright" unicode=")" horiz-adv-x="758" 
d="M138 -370l-80 0.000976562c114.667 161.333 191.334 307.333 230.001 438c38 128 57 302 57 522v22c0 220 -19 394.333 -57 523c-38.667 130.667 -115.334 276.667 -230.001 438h80c114 -126 203.5 -273.333 268.5 -442s98.167 -345.334 99.5 -530.001
c-1.33301 -184.667 -34.5 -361.167 -99.5 -529.5s-154.5 -315.5 -268.5 -441.5z" />
    <glyph glyph-name="asterisk" unicode="*" horiz-adv-x="1024" 
d="M498 1294c-2.66699 47.333 -14.9971 90.667 -36.9971 130c-24.667 44 -37 72 -37 84c0 21.333 7.83301 38.5 23.5 51.5s36.5 19.5 62.5 19.5c24.667 0 45.167 -6 61.5 -18s24.5 -27.667 24.5 -47c0 -14 -12 -43.667 -36 -89c-22 -40.667 -34.333 -84 -37 -130
c44 16.667 81.667 41.667 113 75c34 36.667 57 57 69 61c7.33301 2 14.333 3 21 3c12 0 23.667 -3.33301 35 -10c17.333 -11.333 30 -29 38 -53c4 -12.667 6 -24.667 6 -36c0 -10 -1.33301 -19.333 -4 -28c-6.66699 -20 -19.334 -32.667 -38.001 -38
c-4 -1.33301 -10.333 -2 -19 -2c-16.667 0 -42 3 -76 9c-18.667 3.33301 -37 5 -55 5c-27.333 0 -54.333 -3.66699 -81 -11c29.333 -36.667 64.333 -64.334 105 -83.001c45.333 -21.333 71.666 -37 78.999 -47c8.66699 -12 13 -24.667 13 -38c0 -6 -0.666992 -11.667 -2 -17
c-5.33301 -20 -18.333 -37.667 -39 -53c-19.333 -14.667 -39 -22 -59 -22c-0.666992 0 -1 0.333008 -1 1c-20.667 0 -36.667 7.66699 -48 23c-8 11.333 -15.333 42.666 -22 93.999c-6.66699 44.667 -22.334 86.334 -47.001 125.001
c-25.333 -38.667 -40.666 -80 -45.999 -124c-6 -50 -12.667 -80 -20 -90c-12.667 -16.667 -29 -25.667 -49 -27h-5c-18.667 0 -37.667 7 -57 21c-20 14 -33 31 -39 51c-2.66699 6.66699 -4 13.334 -4 20.001c0 11.333 3.66699 22 11 32
c8.66699 11.333 36.334 28.333 83.001 51c40.667 19.333 75.667 46.666 105 81.999c-27.333 7.33301 -54 11 -80 11c-18 0 -35.667 -1.66699 -53 -5c-36 -7.33301 -62 -11 -78 -11c-6 0 -10.667 0.666992 -14 2c-20 6 -33.667 18.667 -41 38c-4 8.66699 -6 18.334 -6 29.001
c0 11.333 2 23.333 6 36c7.33301 23.333 19.333 41 36 53c11.333 8 22.666 12 33.999 12c6 0 12 -1 18 -3c13.333 -4 38 -24.667 74 -62c31.333 -32.667 68.666 -57.667 111.999 -75z" />
    <glyph glyph-name="plus" unicode="+" 
d="M437 647h-350v140h350v369l1 1h139v-370h349l1 -1v-139h-350v-370h-140v370z" />
    <glyph glyph-name="comma" unicode="," horiz-adv-x="557" 
d="M238 258c29.333 0 58.832 -21.833 88.499 -65.5s44.5 -94.167 44.5 -151.5c0 -72.667 -23.667 -148.167 -71 -226.5s-93.666 -117.5 -138.999 -117.5v43c48.667 28.667 77.667 92 87 190c0 79.333 -43 133 -129 161v42z" />
    <glyph glyph-name="hyphen" unicode="-" horiz-adv-x="670" 
d="M156 409c-26.667 0 -40 9.33301 -40 28v83c0 19.333 13.667 29 41 29h356c27.333 0 41 -9.66699 41 -29v-83c0 -18.667 -13.333 -28 -40 -28h-358z" />
    <glyph glyph-name="hyphen" unicode="&#xad;" horiz-adv-x="670" 
d="M156 409c-26.667 0 -40 9.33301 -40 28v83c0 19.333 13.667 29 41 29h356c27.333 0 41 -9.66699 41 -29v-83c0 -18.667 -13.333 -28 -40 -28h-358z" />
    <glyph glyph-name="period" unicode="." horiz-adv-x="557" 
d="M145 167l82.001 84c10 9.33301 19.667 14 29 14c8.66699 0 19 -5.33301 31 -16l80 -86c8 -10.667 12 -20.334 12 -29.001c0 -10 -4.66699 -20.333 -14 -31l-80 -88c-13.333 -13.333 -23 -20 -29 -20c-10.667 0 -20.334 4.66699 -29.001 14l-88 101
c-6.66699 8.66699 -10 17.334 -10 26.001c0 10 5.33301 20.333 16 31z" />
    <glyph glyph-name="slash" unicode="/" horiz-adv-x="569" 
d="M93 -50h-80l541 1484h80z" />
    <glyph glyph-name="zero" unicode="0" 
d="M507 1459c72 0 142.331 -32 210.998 -96s122.334 -155.333 161.001 -274s58 -242.667 58 -372s-18.833 -252.666 -56.5 -369.999s-90.667 -208.666 -159 -273.999s-139.833 -98 -214.5 -98s-146.167 32.667 -214.5 98s-121.333 156.666 -159 273.999
s-56.5 240.666 -56.5 369.999s19.167 253.333 57.5 372s91.833 210 160.5 274s139.334 96 212.001 96zM236.998 689c9.33301 -120 29.8311 -233.33 61.498 -339.997s71.167 -188 118.5 -244c43.333 -52 86.333 -78 129 -78c4 0 8 0.333008 12 1
c46.667 4.66699 89.167 39.5 127.5 104.5s65.5 153.5 81.5 265.5c10 71.333 15 144.666 15 219.999c0 41.333 -1.66699 83.333 -5 126c-9.33301 120.667 -30.166 235 -62.499 343s-72.166 189.333 -119.499 244c-43.333 50.667 -86 76 -128 76
c-4 0 -7.66699 -0.333008 -11 -1c-45.333 -4.66699 -87.333 -38.834 -126 -102.501s-66 -151.834 -82 -264.501c-10.667 -73.333 -16 -148.333 -16 -225c0 -41.333 1.66699 -83 5 -125z" />
    <glyph glyph-name="one" unicode="1" 
d="M234 0v50h96c68.667 0 103 78.333 103 235v794c0 86 -39 129 -117 129h-98v50c194.667 42 303.667 100.667 327 176h50v-1149c0 -156.667 34.333 -235 103 -235h96v-50h-560z" />
    <glyph glyph-name="two" unicode="2" 
d="M722 1036c0 98.667 -28.6689 180.333 -86.002 245s-119.333 97 -186 97c-113.333 0 -205 -43.667 -275 -131h-22v49c26 33.333 64.333 68 115 104s112.334 54 185.001 54c122 0 224.167 -40.333 306.5 -121s123.5 -179.667 123.5 -297c0 -174.667 -209 -480 -627 -916
h422c86.667 0 156.334 37.333 209.001 112h49l-103 -232h-719l1 50c404.667 450 607 778.667 607 986z" />
    <glyph glyph-name="three" unicode="3" 
d="M435 22c100.667 0 173.334 38.8311 218.001 116.498s67 171.167 67 280.5c0 69.333 -14.833 137.833 -44.5 205.5s-88.5 117.167 -176.5 148.5v19c54 30 102 70.167 144 120.5s63 120.166 63 209.499c0 73.333 -18.333 136.5 -55 189.5s-92 83.833 -166 92.5
c-45.333 0 -86.5 -15 -123.5 -45s-55.5 -67 -55.5 -111h-42v159c0 13.333 24.5 24.5 73.5 33.5s100.833 13.5 155.5 13.5c103.333 0 189 -28 257 -84s102 -139 102 -249c0 -58 -20.333 -113.333 -61 -166s-105 -99 -193 -139c62 -9.33301 127 -54.166 195 -134.499
s102 -173.166 102 -278.499c0 -108.667 -48 -206.667 -144 -294s-204.333 -131 -325 -131c-101.333 0 -183.833 13 -247.5 39s-95.5 55.333 -95.5 88v100h49c0 -55.333 28.667 -99.666 86 -132.999s129.666 -50 216.999 -50z" />
    <glyph glyph-name="four" unicode="4" 
d="M600 438v686l-424 -686h424zM737 338v-171c0 -78 24 -117 72 -117h76v-50h-442v50h76c54 0 81 40 81 120v168h-557v35l660 1061h34v-996h19c88.667 0 153 44 193 132h49l-103 -232h-158z" />
    <glyph glyph-name="five" unicode="5" 
d="M229 852l144.003 582.001h396c68.667 0 106 17.333 112 52h50l-63 -172h-429l-104 -415c150.667 0 280 -41.5 388 -124.5s162 -183.167 162 -300.5c0 -156 -47.833 -277.667 -143.5 -365s-203.834 -131 -324.501 -131c-101.333 0 -184 13 -248 39
c-61.333 24.667 -92 52 -92 82v106h46c0 -58.667 28.667 -103.834 86 -135.501s129.666 -47.5 216.999 -47.5c100.667 0 173.167 38.833 217.5 116.5s66.5 193.5 66.5 347.5c0 106 -36.667 194.333 -110 265s-168.333 106 -285 106c-26.667 0 -55.334 -1.66699 -86.001 -5z
" />
    <glyph glyph-name="six" unicode="6" 
d="M558 11c67.333 0 121.667 32.833 163 98.5s62 148.167 62 247.5c0 135.333 -33.333 246.5 -100 333.5s-138.667 130.5 -216 130.5c-60.667 0 -115 -33.833 -163 -101.5s-72 -151.167 -72 -250.5c0 -102 31.833 -203.833 95.5 -305.5s140.5 -152.5 230.5 -152.5z
M801.001 1459l-0.000976562 -48c-118 -8 -226.833 -67.833 -326.5 -179.5s-177.5 -267.5 -233.5 -467.5c64 62 152.667 93 266 93c72 0 142.333 -19 211 -57s122.334 -92.167 161.001 -162.5s58 -144.166 58 -221.499s-18.833 -150.833 -56.5 -220.5
s-85.667 -123.834 -144 -162.501s-114.833 -58 -169.5 -58c-162 0 -284.167 54.167 -366.5 162.5s-123.5 232.5 -123.5 372.5c0 213.333 69.667 424.833 209 634.5s311 314.5 515 314.5z" />
    <glyph glyph-name="seven" unicode="7" 
d="M737 1314h-399.001c-88.667 0 -152.667 -37.333 -192 -112h-50l103 232h719l-1 -50c-246.667 -577.333 -370 -979 -370 -1205c0 -86 22.333 -129 67 -129h117v-50h-411v50h67c48 0 72 43.667 72 131c12.667 197.333 105.334 575 278.001 1133z" />
    <glyph glyph-name="eight" unicode="8" 
d="M552 830c80.667 16.667 132.667 58 156 124c18 50 27 96.667 27 140c0 13.333 -1 26.333 -3 39c-8 54 -25.5 105.333 -52.5 154s-60.167 85.334 -99.5 110.001c-36.667 22 -72 33 -106 33h-9c-38 -2 -73.167 -17.333 -105.5 -46s-55.166 -68.334 -68.499 -119.001
c-8.66699 -32.667 -13 -66 -13 -100c0 -18.667 1.33301 -37.667 4 -57c8 -53.333 25.167 -104 51.5 -152s99.166 -90 218.499 -126zM472 785c-76 -14 -136.333 -66.3311 -181 -156.998c-37.333 -76.667 -56 -145.334 -56 -206.001c0 -12 0.666992 -23.667 2 -35
c9.33301 -69.333 29.833 -134.833 61.5 -196.5s71.167 -108.5 118.5 -140.5c42.667 -29.333 85.334 -44 128.001 -44h13c46.667 2.66699 89.167 22.667 127.5 60s65.5 88.333 81.5 153c10 41.333 15 83.666 15 126.999c0 24 -1.66699 48.333 -5 73
c-7.33301 74.667 -31.833 145.5 -73.5 212.5s-118.834 118.167 -231.501 153.5zM636 811.002c28 -9.33301 55.333 -21 82 -35c68.667 -37.333 122.334 -90.166 161.001 -158.499s58 -139.833 58 -214.5s-18.833 -145.834 -56.5 -213.501s-90.667 -120.334 -159 -158.001
s-139.833 -56.5 -214.5 -56.5s-146.167 18.833 -214.5 56.5s-121.333 90.334 -159 158.001s-56.5 138.834 -56.5 213.501s19.167 146.167 57.5 214.5s91.833 121.166 160.5 158.499c27.333 14 54.666 25.667 81.999 35c-16 6 -32 13 -48 21
c-57.333 29.333 -101.666 70.333 -132.999 123s-47 108 -47 166s16 113.667 48 167s76.5 94.333 133.5 123s115.833 43 176.5 43c60 0 118.667 -14.333 176 -43s102 -69.667 134 -123s48 -109 48 -167s-15.667 -113.333 -47 -166s-75.333 -93.667 -132 -123
c-16.667 -8.66699 -33.334 -15.667 -50.001 -21z" />
    <glyph glyph-name="nine" unicode="9" 
d="M456 1423c-67.333 0 -121.501 -32.833 -162.501 -98.5s-61.5 -148.167 -61.5 -247.5c0 -135.333 33.333 -246.5 100 -333.5s138.334 -130.5 215.001 -130.5c60.667 0 115.167 33.833 163.5 101.5s72.5 151.167 72.5 250.5c0 102 -32 203.833 -96 305.5
s-141 152.5 -231 152.5zM212.999 -25l0.000976562 48c118 8 226.833 67.833 326.5 179.5s177.5 267.5 233.5 467.5c-63.333 -62 -152 -93 -266 -93c-72 0 -142.333 19 -211 57s-122.334 92.167 -161.001 162.5s-58 144.166 -58 221.499s18.833 150.833 56.5 220.5
s85.667 123.834 144 162.501s114.833 58 169.5 58c162 0 284.167 -54.167 366.5 -162.5s123.5 -232.5 123.5 -372.5c0 -213.333 -69.667 -424.833 -209 -634.5s-311 -314.5 -515 -314.5z" />
    <glyph glyph-name="colon" unicode=":" horiz-adv-x="557" 
d="M145 167l82.001 84c10 9.33301 19.667 14 29 14c8.66699 0 19 -5.33301 31 -16l80 -86c8 -10.667 12 -20.334 12 -29.001c0 -10 -4.66699 -20.333 -14 -31l-80 -88c-13.333 -13.333 -23 -20 -29 -20c-10.667 0 -20.334 4.66699 -29.001 14l-88 101
c-6.66699 8.66699 -10 17.334 -10 26.001c0 10 5.33301 20.333 16 31zM145.001 860l82.001 84c10 9.33301 19.667 14 29 14c8.66699 0 19 -5.33301 31 -16l80 -86c8 -10.667 12 -20.334 12 -29.001c0 -10 -4.66699 -20.333 -14 -31l-80 -88c-13.333 -13.333 -23 -20 -29 -20
c-10.667 0 -20.334 4.66699 -29.001 14l-88 101c-6.66699 8.66699 -10 17.334 -10 26.001c0 10 5.33301 20.333 16 31z" />
    <glyph glyph-name="semicolon" unicode=";" horiz-adv-x="557" 
d="M145 859l82.001 84c10 9.33301 19.667 14 29 14c8.66699 0 19 -5.33301 31 -16l80 -86c8 -10.667 12 -20.334 12 -29.001c0 -10 -4.66699 -20.333 -14 -31l-80 -88c-13.333 -13.333 -23 -20 -29 -20c-10.667 0 -20.334 4.66699 -29.001 14l-88 101
c-6.66699 8.66699 -10 17.334 -10 26.001c0 10 5.33301 20.333 16 31zM238.001 258c29.333 0 58.832 -21.833 88.499 -65.5s44.5 -94.167 44.5 -151.5c0 -72.667 -23.667 -148.167 -71 -226.5s-93.666 -117.5 -138.999 -117.5v43c48.667 28.667 77.667 92 87 190
c0 79.333 -43 133 -129 161v42z" />
    <glyph glyph-name="semicolon" unicode="&#x37e;" horiz-adv-x="557" 
d="M145 859l82.001 84c10 9.33301 19.667 14 29 14c8.66699 0 19 -5.33301 31 -16l80 -86c8 -10.667 12 -20.334 12 -29.001c0 -10 -4.66699 -20.333 -14 -31l-80 -88c-13.333 -13.333 -23 -20 -29 -20c-10.667 0 -20.334 4.66699 -29.001 14l-88 101
c-6.66699 8.66699 -10 17.334 -10 26.001c0 10 5.33301 20.333 16 31zM238.001 258c29.333 0 58.832 -21.833 88.499 -65.5s44.5 -94.167 44.5 -151.5c0 -72.667 -23.667 -148.167 -71 -226.5s-93.666 -117.5 -138.999 -117.5v43c48.667 28.667 77.667 92 87 190
c0 79.333 -43 133 -129 161v42z" />
    <glyph glyph-name="less" unicode="&#x3c;" 
d="M927 1074l-625 -359l625 -355v-167l-840 481v83l840 484v-167z" />
    <glyph glyph-name="equal" unicode="=" 
d="M87 631h840v-140h-840v140zM87 943h840v-140h-840v140z" />
    <glyph glyph-name="greater" unicode="&#x3e;" 
d="M87 1241l840 -484v-83l-840 -481v167l625 355l-625 359v167z" />
    <glyph glyph-name="question" unicode="?" horiz-adv-x="748" 
d="M132 1330c85.333 69.333 165.999 104 241.999 104c88 0 158.667 -22.667 212 -68s80 -106 80 -182c0 -46 -10.833 -92.667 -32.5 -140s-63.167 -109.333 -124.5 -186c-60 -75.333 -107.167 -137.833 -141.5 -187.5s-51.5 -97.167 -51.5 -142.5c0 -42 11.667 -105 35 -189
h-47c-33.333 92 -50 162.333 -50 211c0 72.667 38.833 176.667 116.5 312s116.5 238.333 116.5 309c0 54.667 -15.667 97.667 -47 129s-74.666 47 -129.999 47c-56 0 -115.333 -27 -178 -81v64zM222.999 167l82.001 84c10 9.33301 19.667 14 29 14
c8.66699 0 19 -5.33301 31 -16l80 -86c8 -10.667 12 -20.334 12 -29.001c0 -10 -4.66699 -20.333 -14 -31l-80 -88c-13.333 -13.333 -23 -20 -29 -20c-10.667 0 -20.334 4.66699 -29.001 14l-88 101c-6.66699 8.66699 -10 17.334 -10 26.001c0 10 5.33301 20.333 16 31z" />
    <glyph glyph-name="at" unicode="@" horiz-adv-x="2019" 
d="M972 622c-55.333 -6.66699 -105.667 -33.333 -151 -80s-68 -113 -68 -199c0 -71.333 21.333 -136 64 -194s103.667 -87 183 -87c64.667 3.33301 106.667 59 126 167v476c-36 -42 -87.333 -69.667 -154 -83zM1360 29.001c-42 0.666992 -75.5107 6.66895 -100.511 18.002
s-45.5 29.333 -61.5 54c-19.333 -24.667 -46.666 -46.167 -81.999 -64.5s-79.666 -27.5 -132.999 -27.5c-96 0 -181.5 33.5 -256.5 100.5s-112.5 144.833 -112.5 233.5c0.666992 58 18.334 113.5 53.001 166.5s78.834 91.333 132.501 115s111.5 40.167 173.5 49.5
c44.667 10.667 81.334 24.834 110.001 42.501s43 42.5 43 74.5c-1.33301 46 -15 87.667 -41 125s-69 56 -129 56c-48 0 -88.5 -19.667 -121.5 -59s-49.833 -81 -50.5 -125h-45v159c0 13.333 24 26.666 72 39.999c48.667 13.333 108 20 178 20
c72.667 -1.33301 137.167 -22.833 193.5 -64.5s84.5 -94.167 84.5 -157.5v-589c0 -78 31.333 -117 94 -117c123.333 23.333 212.333 87.166 267 191.499s82 231.833 82 382.5c-13.333 223.333 -90.666 403.333 -231.999 540c-131.333 125.333 -291.333 188 -480 188
c-136.667 0 -267.5 -45.833 -392.5 -137.5s-214.833 -210.167 -269.5 -355.5c-44.667 -118.667 -67 -239 -67 -361c0 -208.667 43.167 -379.167 129.5 -511.5s188 -229.166 305 -290.499s223.167 -92 318.5 -92c182.667 0 374.334 69.333 575.001 208v-75
c-175.333 -122.667 -365.666 -184 -570.999 -184c-160 0 -313.667 40.833 -461 122.5s-261.666 195.667 -342.999 342s-122 300.166 -122 461.499s41.333 316.166 124 464.499s197.834 262.333 345.501 342s299.834 119.5 456.501 119.5c241.333 0 444.333 -76.667 609 -230
s247 -342 247 -566c0 -180 -58.667 -326.333 -176 -439c-116.667 -112 -232 -168.667 -346 -170z" />
    <glyph glyph-name="A" unicode="A" horiz-adv-x="1540" 
 />
    <glyph glyph-name="B" unicode="B" horiz-adv-x="1219" 
 />
    <glyph glyph-name="C" unicode="C" horiz-adv-x="1399" 
 />
    <glyph glyph-name="D" unicode="D" horiz-adv-x="1518" 
 />
    <glyph glyph-name="E" unicode="E" horiz-adv-x="1151" 
 />
    <glyph glyph-name="F" unicode="F" horiz-adv-x="1079" 
 />
    <glyph glyph-name="G" unicode="G" horiz-adv-x="1479" 
 />
    <glyph glyph-name="H" unicode="H" horiz-adv-x="1579" 
 />
    <glyph glyph-name="I" unicode="I" horiz-adv-x="657" 
 />
    <glyph glyph-name="J" unicode="J" horiz-adv-x="657" 
 />
    <glyph glyph-name="K" unicode="K" horiz-adv-x="1382" 
 />
    <glyph glyph-name="L" unicode="L" horiz-adv-x="1128" 
 />
    <glyph glyph-name="M" unicode="M" horiz-adv-x="1798" 
 />
    <glyph glyph-name="N" unicode="N" horiz-adv-x="1554" 
 />
    <glyph glyph-name="O" unicode="O" horiz-adv-x="1614" 
 />
    <glyph glyph-name="P" unicode="P" horiz-adv-x="1120" 
 />
    <glyph glyph-name="Q" unicode="Q" horiz-adv-x="1614" 
 />
    <glyph glyph-name="R" unicode="R" horiz-adv-x="1283" 
 />
    <glyph glyph-name="S" unicode="S" horiz-adv-x="1085" 
 />
    <glyph glyph-name="T" unicode="T" horiz-adv-x="1350" 
 />
    <glyph glyph-name="U" unicode="U" horiz-adv-x="1501" 
 />
    <glyph glyph-name="V" unicode="V" horiz-adv-x="1456" 
 />
    <glyph glyph-name="W" unicode="W" horiz-adv-x="2030" 
 />
    <glyph glyph-name="X" unicode="X" horiz-adv-x="1350" 
 />
    <glyph glyph-name="Y" unicode="Y" horiz-adv-x="1233" 
 />
    <glyph glyph-name="Z" unicode="Z" horiz-adv-x="1124" 
 />
    <glyph glyph-name="bracketleft" unicode="[" horiz-adv-x="758" 
 />
    <glyph glyph-name="backslash" unicode="\" horiz-adv-x="569" 
 />
    <glyph glyph-name="bracketright" unicode="]" horiz-adv-x="758" 
 />
    <glyph glyph-name="asciicircum" unicode="^" 
 />
    <glyph glyph-name="underscore" unicode="_" horiz-adv-x="1024" 
d="M0 -100h1024v-60h-1024v60z" />
    <glyph glyph-name="grave" unicode="`" horiz-adv-x="1024" 
d="M673 1079l-69 0.000976562l-330 202c-20.667 13.333 -36.167 26.666 -46.5 39.999s-15.5 27.333 -15.5 42c0 20.667 6.83301 37.667 20.5 51s31.5 20 53.5 20c13.333 0 26.833 -4 40.5 -12s32.167 -23.667 55.5 -47z" />
    <glyph glyph-name="a" unicode="a" horiz-adv-x="922" 
 />
    <glyph glyph-name="b" unicode="b" horiz-adv-x="995" 
 />
    <glyph glyph-name="c" unicode="c" horiz-adv-x="905" 
 />
    <glyph glyph-name="d" unicode="d" horiz-adv-x="1040" 
 />
    <glyph glyph-name="e" unicode="e" horiz-adv-x="909" 
 />
    <glyph glyph-name="f" unicode="f" horiz-adv-x="559" 
 />
    <glyph glyph-name="g" unicode="g" horiz-adv-x="899" 
 />
    <glyph glyph-name="h" unicode="h" horiz-adv-x="1104" 
 />
    <glyph glyph-name="i" unicode="i" horiz-adv-x="514" 
 />
    <glyph glyph-name="j" unicode="j" horiz-adv-x="510" 
 />
    <glyph glyph-name="k" unicode="k" horiz-adv-x="1026" 
 />
    <glyph glyph-name="l" unicode="l" horiz-adv-x="522" 
 />
    <glyph glyph-name="m" unicode="m" horiz-adv-x="1569" 
 />
    <glyph glyph-name="n" unicode="n" horiz-adv-x="1108" 
 />
    <glyph glyph-name="o" unicode="o" horiz-adv-x="1010" 
 />
    <glyph glyph-name="p" unicode="p" horiz-adv-x="1010" 
 />
    <glyph glyph-name="q" unicode="q" horiz-adv-x="1024" 
 />
    <glyph glyph-name="r" unicode="r" horiz-adv-x="692" 
 />
    <glyph glyph-name="s" unicode="s" horiz-adv-x="702" 
 />
    <glyph glyph-name="t" unicode="t" horiz-adv-x="674" 
 />
    <glyph glyph-name="u" unicode="u" horiz-adv-x="1059" 
 />
    <glyph glyph-name="v" unicode="v" horiz-adv-x="993" 
 />
    <glyph glyph-name="w" unicode="w" horiz-adv-x="1415" 
 />
    <glyph glyph-name="x" unicode="x" horiz-adv-x="1010" 
 />
    <glyph glyph-name="y" unicode="y" horiz-adv-x="868" 
 />
    <glyph glyph-name="z" unicode="z" horiz-adv-x="727" 
 />
    <glyph glyph-name="braceleft" unicode="{" 
d="M240 698c114.667 3.33301 188.999 26.999 222.999 70.999s51 88.333 51 133v468c0 49.333 25.667 96.5 77 141.5s113 67.5 185 67.5h108v-50h-90c-40.667 0 -76.334 -11.167 -107.001 -33.5s-46.334 -52.833 -47.001 -91.5v-500
c0 -55.333 -20.167 -108.166 -60.5 -158.499s-87.833 -75.833 -142.5 -76.5v-2c54.667 -0.666992 102.334 -26 143.001 -76s61 -102.667 61 -158l-1 -500c0.666992 -38.667 16.334 -69.167 47.001 -91.5s66.334 -33.5 107.001 -33.5h90v-50h-108
c-72 0 -133.5 22.5 -184.5 67.5s-76.833 92.167 -77.5 141.5v468c0 44 -17 88 -51 132s-108.333 67.667 -223 71v60z" />
    <glyph glyph-name="bar" unicode="|" 
d="M427 1577h160v-1995h-160v1995z" />
    <glyph glyph-name="braceright" unicode="}" 
d="M774 638c-114.667 -3.33301 -189.001 -26.999 -223.001 -70.999s-51 -88 -51 -132v-468c-0.666992 -49.333 -26.5 -96.5 -77.5 -141.5s-112.5 -67.5 -184.5 -67.5h-108v50h90c40.667 0 76.334 11.167 107.001 33.5s46.334 52.833 47.001 91.5l-1 500
c0 55.333 20.333 108 61 158s88.667 75.333 144 76v2c-55.333 0.666992 -103.166 26.167 -143.499 76.5s-60.5 103.166 -60.5 158.499v500c-0.666992 38.667 -16.334 69.167 -47.001 91.5s-66.334 33.5 -107.001 33.5h-90v50h108c72 0 133.667 -22.5 185 -67.5
s77 -92.167 77 -141.5v-468c0 -44.667 17 -89 51 -133s108.333 -67.667 223 -71v-60z" />
    <glyph glyph-name="asciitilde" unicode="~" 
d="M923 878l-0.00195312 -156c-42 -48 -82.667 -80.5 -122 -97.5s-78 -25.5 -116 -25.5c-40 0 -99.167 16.167 -177.5 48.5s-137.166 48.5 -176.499 48.5c-34 0 -69.833 -9.33301 -107.5 -28s-80.834 -56 -129.501 -112v156c42.667 48.667 83.667 81.667 123 99
s77.333 26 114 26c42.667 0 103.167 -16.5 181.5 -49.5s135.833 -49.5 172.5 -49.5c34.667 0 70.834 9.33301 108.501 28s80.834 56 129.501 112z" />
    <glyph glyph-name="exclamdown" unicode="&#xa1;" horiz-adv-x="672" 
 />
    <glyph glyph-name="cent" unicode="&#xa2;" horiz-adv-x="1139" 
 />
    <glyph glyph-name="sterling" unicode="&#xa3;" 
d="M748 1347c-48 20.667 -101.333 30.999 -160 30.999h-2c-66.667 0 -130 -33.667 -190 -101c-56 -62 -84 -142.333 -84 -241c0 -10 0.333008 -20 1 -30c0 -90 17.667 -181 53 -273h360v-60h-334c9.33301 -20 19.666 -40 30.999 -60c23.333 -42 35 -88 35 -138
c0 -107.333 -54 -232.333 -162 -375h402c86.667 0 149.667 44 189 132l49 -1l-103 -231h-719l1 50c124.667 158.667 187 298 187 418c0 51.333 -11.333 99 -34 143c-11.333 21.333 -21.666 42 -30.999 62h-161v60h135c-38.667 95.333 -58 179.666 -58 252.999
c0 150.667 41.167 266.334 123.5 347.001s184.5 121 306.5 121h4c50 0 111.833 -4.66699 185.5 -14s110.5 -20.666 110.5 -33.999v-161h-58c-3.33301 40.667 -29 74.667 -77 102z" />
    <glyph glyph-name="currency" unicode="&#xa4;" 
d="M350 560c27.333 -26.667 60.333 -45.6641 99 -56.9971c19.333 -5.33301 38.666 -8 57.999 -8s38.666 2.66699 57.999 8c38.667 11.333 71.667 30.333 99 57c26.667 27.333 45.667 60.333 57 99c6 19.333 9 38.666 9 57.999s-3 38.666 -9 57.999
c-11.333 38.667 -30.333 71.667 -57 99c-27.333 26.667 -60.666 45.667 -99.999 57c-19.333 5.33301 -38.666 8 -57.999 8s-38.666 -3 -57.999 -9c-38.667 -11.333 -71.334 -30 -98.001 -56c-26 -26.667 -44.667 -59.334 -56 -98.001c-6.66699 -20 -10 -40 -10 -60
c0 -18.667 3 -37.334 9 -56.001c10.667 -39.333 29.667 -72.666 57 -99.999zM240 903.003l-118.001 118l80 81l118 -118c29.333 20 62.333 35.333 99 46c29.333 9.33301 59 14 89 14c27.333 0 55 -4 83 -12c38 -11.333 72 -27.333 102 -48l118 118l80 -81l-117 -117
c20.667 -30.667 36.667 -64.667 48 -102c8 -28 12 -56.333 12 -85c0 -28 -4 -56.333 -12 -85c-11.333 -37.333 -27.333 -71.333 -48 -102l117 -117l-80 -81l-118 118c-30 -21.333 -63.667 -37.333 -101 -48c-28 -8 -56.333 -12 -85 -12c-28 0 -56.333 4 -85 12
c-38 10.667 -72 26.667 -102 48l-118 -118l-80 81l118 117c-21.333 30.667 -37.333 65 -48 103c-8 28 -12 56 -12 84c0 29.333 4.33301 58.333 13 87c10.667 36.667 26.334 69.667 47.001 99z" />
    <glyph glyph-name="yen" unicode="&#xa5;" horiz-adv-x="1262" 
d="M547 225l-1.99707 241.993c0 12.667 -0.5 24.334 -1.5 35.001s-2.5 21.334 -4.5 32.001l-484 1c-9.33301 0 -16.333 2.16699 -21 6.5s-7 10.833 -7 19.5s2.16699 15 6.5 19s11.5 6 21.5 6h467l-121 172h-344c-11.333 0 -19.166 1.83301 -23.499 5.5
s-6.5 9.83398 -6.5 18.501c0 9.33301 2 15.833 6 19.5s11.333 5.5 22 5.5h307c-28.667 38 -64.667 89.667 -108 155c-87.333 131.333 -163 197 -227 197c-4.66699 0 -9 1.83301 -13 5.5s-6 7.5 -6 11.5c0 12.667 3.5 21.834 10.5 27.501s17.833 8.5 32.5 8.5
c18 0 59 -2.66699 123 -8s118.667 -8 164 -8h88c22 0 35.667 -2.16699 41 -6.5s8 -13.166 8 -26.499c0 -5.33301 -5 -10 -15 -14s-22.667 -6 -38 -6c-4 0 -10.167 0.666992 -18.5 2s-14.5 2 -18.5 2c-16 0 -28.5 -3.16699 -37.5 -9.5s-13.5 -14.833 -13.5 -25.5
c0 -12 5.5 -29.333 16.5 -52s26.5 -48.334 46.5 -77.001l158 -221c8.66699 -12.667 19.667 -30.334 33 -53.001c27.333 -46.667 51 -70 71 -70c6 0 11.5 1.66699 16.5 5s9.83301 8.33301 14.5 15l277 396c5.33301 8 9.66602 16.833 12.999 26.5s5 17.834 5 24.501
c0 12 -3.33301 21 -10 27s-19 10.667 -37 14c-10 1.33301 -23.667 2.66602 -41 3.99902c-31.333 2 -47 10.333 -47 25c0 10 2.66699 17.5 8 22.5s13.666 7.5 24.999 7.5c2 0 7 -0.333008 15 -1c37.333 -4.66699 73.333 -7 108 -7h139c20 0 41.667 0.333008 65 1
s35.666 1 36.999 1c7.33301 0 13.5 -1.5 18.5 -4.5s7.83301 -6.83301 8.5 -11.5c0 -18.667 -12.667 -30 -38 -34c-12 -2 -21 -3.66699 -27 -5c-42 -10 -91 -49 -147 -117l-12 -15l-169 -206h323c10 0 18 -2 24 -6s9 -9.66699 9 -17c0 -10 -2 -16.833 -6 -20.5
s-11.667 -5.5 -23 -5.5h-366c-30.667 -38 -62.834 -75.5 -96.501 -112.5s-51.167 -56.833 -52.5 -59.5h511c12 0 20.5 -1.83301 25.5 -5.5s7.5 -9.5 7.5 -17.5c0 -9.33301 -2.33301 -16.333 -7 -21s-12 -7 -22 -7h-530c0 -7.33301 -0.333008 -17.5 -1 -30.5
s-1 -22.833 -1 -29.5l2 -215c0 -76 1.83301 -126 5.5 -150s10.5 -38.667 20.5 -44c20 -11.333 55.833 -17.666 107.5 -18.999s77.5 -11.666 77.5 -30.999c0 -8 -3.33301 -14.667 -10 -20s-15 -8 -25 -8c-1.33301 0 -13.166 1.33301 -35.499 4s-43.833 4 -64.5 4
c-60.667 0 -130.167 -1.33301 -208.5 -4s-125.833 -4 -142.5 -4c-20.667 0 -34 1.33301 -40 4s-9 8 -9 16s2.66699 14.167 8 18.5s17.666 8.5 36.999 12.5c6 1.33301 14.333 3 25 5c49.333 10.667 80 21.334 92 32.001c11.333 8.66699 19.333 24.334 24 47.001
s7 56.667 7 102z" />
    <glyph glyph-name="brokenbar" unicode="&#xa6;" 
d="M427 371h160v-789h-160v789zM427 1578h160v-789h-160v789z" />
    <glyph glyph-name="section" unicode="&#xa7;" 
d="M545 321c37.333 10.667 69.668 28.3359 97.001 53.0029c48.667 43.333 73 98.666 73 165.999c0 3.33301 -0.333008 6.66602 -1 9.99902h-2c-0.666992 9.33301 -2 18.333 -4 27c-14.667 40.667 -52.334 83 -113.001 127c-39.333 19.333 -81.333 29 -126 29
c-52 0 -93.667 -14.833 -125 -44.5s-47 -68.834 -47 -117.501c0 -82 82.667 -165.333 248 -250zM466.002 -345.998c75.333 4 137.001 26.9971 185.001 68.9971c48 42.667 72 97.667 72 165c0 83.333 -105.333 175.333 -316 276c-82 42.667 -140.5 88.334 -175.5 137.001
s-52.5 107.667 -52.5 177c0 98.667 29.667 177.667 89 237c44.667 43.333 101.334 70.666 170.001 81.999l-40 19c-82 42.667 -140.5 88.334 -175.5 137.001s-52.5 107.667 -52.5 177c0 98.667 29.667 177.667 89 237c54.667 52.667 126.667 81.334 216 86.001
c5.33301 0.666992 11 1 17 1h3c44 0 98.333 -5.5 163 -16.5s97 -24.833 97 -41.5v-194h-51c-3.33301 54 -30 98 -80 132c-46.667 31.333 -96.334 48.333 -149.001 51h-15c-52 0 -93.667 -14.833 -125 -44.5s-47 -68.834 -47 -117.501c0 -88 95.667 -177.667 287 -269
c99.333 -44.667 167.5 -92.5 204.5 -143.5s55.5 -113.5 55.5 -187.5c0 -114 -33.667 -208 -101 -282c-31.333 -26 -64.333 -47.333 -99 -64c72 -37.333 123.333 -76.666 154 -117.999c36.667 -51.333 55 -113.666 55 -186.999c0 -114 -33.667 -208.333 -101 -283
c-82.667 -68 -175 -103 -277 -105v1c-4 -0.666992 -8.33301 -1 -13 -1h-3c-44 0 -98.333 5.5 -163 16.5s-97 24.833 -97 41.5v194h51c3.33301 -54 30 -98 80 -132c45.333 -30 93.666 -46.667 144.999 -50z" />
    <glyph glyph-name="dieresis" unicode="&#xa8;" horiz-adv-x="1024" 
d="M223 1289l70.998 71.998c8.66699 8 17 12 25 12c7.33301 0 16.333 -4.66699 27 -14l69 -73c6.66699 -9.33301 10 -17.666 10 -24.999c0 -8.66699 -4 -17.667 -12 -27l-69 -75c-11.333 -11.333 -19.666 -17 -24.999 -17c-9.33301 0 -17.666 4 -24.999 12l-76 86
c-6 8 -9 15.667 -9 23c0 8.66699 4.66699 17.334 14 26.001zM587.998 1289l70.998 72c8.66699 8 17 12 25 12c7.33301 0 16.333 -4.33301 27 -13l69 -74c6.66699 -9.33301 10 -17.666 10 -24.999c0 -8.66699 -4 -17.334 -12 -26.001l-69 -76
c-11.333 -11.333 -19.666 -17 -24.999 -17c-9.33301 0 -17.666 4 -24.999 12l-76 87c-6 7.33301 -9 14.666 -9 21.999c0 8.66699 4.66699 17.334 14 26.001z" />
    <glyph glyph-name="copyright" unicode="&#xa9;" horiz-adv-x="1674" 
d="M840 1456c96.667 0 190 -18.835 280 -56.502s169.667 -91.167 239 -160.5c68 -67.333 120.833 -146.666 158.5 -237.999s56.5 -185.666 56.5 -282.999c0 -98 -18.833 -192 -56.5 -282s-91.834 -170 -162.501 -240c-70 -70 -149.667 -123.167 -239 -159.5
s-183.666 -54.5 -282.999 -54.5c-97.333 0 -190 18.5 -278 55.5s-167.333 90.5 -238 160.5c-70.667 69.333 -124.5 148.5 -161.5 237.5s-55.5 183.167 -55.5 282.5c0 98.667 18.5 193 55.5 283s90.167 169.333 159.5 238c68 69.333 147.5 122.833 238.5 160.5
s186.5 56.5 286.5 56.5zM357 1197c-63.333 -64 -112.004 -137.168 -146.004 -219.501s-51 -168.833 -51 -259.5c0 -91.333 17 -177.666 51 -258.999s83.333 -154.333 148 -219c65.333 -64 138.333 -113 219 -147s166 -51 256 -51c91.333 0 177.833 16.833 259.5 50.5
s154.834 82.167 219.501 145.5c64.667 65.333 114.334 139.166 149.001 221.499s52 168.5 52 258.5c0 89.333 -17.333 175.833 -52 259.5s-83 156.834 -145 219.501c-64 64 -137.333 113.167 -220 147.5s-168.667 51.5 -258 51.5c-91.333 0 -178.666 -17.167 -261.999 -51.5
s-156.666 -83.5 -219.999 -147.5zM864.996 222.997c-94.667 0 -182.669 22.6689 -264.002 68.002s-143.333 107 -186 185s-64 159 -64 243s21.833 165.333 65.5 244s106.167 140.167 187.5 184.5s166 66.5 254 66.5c25.333 0 50.333 -2.16699 75 -6.5s50 -11.166 76 -20.499
c3.33301 -0.666992 6.33301 -1 9 -1c12.667 0 21.334 10 26.001 30h42l72 -198h-44c-34.667 62.667 -78.334 104 -131.001 124c-48 17.333 -97 26 -147 26h-15c-57.333 -5.33301 -112.833 -29 -166.5 -71s-94.167 -101 -121.5 -177c-22 -60 -33 -121.333 -33 -184
c0 -16.667 0.666992 -33.334 2 -50.001c7.33301 -80.667 30.5 -155.334 69.5 -224.001s88.833 -119.334 149.5 -152.001c48 -26.667 103.333 -40.667 166 -42c82.667 0 147.334 18.667 194.001 56s70 79.333 70 126h53v-100c0 -30.667 -32.167 -59.5 -96.5 -86.5
s-145.166 -40.5 -242.499 -40.5z" />
    <glyph glyph-name="ordfeminine" unicode="&#xaa;" horiz-adv-x="648" 
 />
    <glyph glyph-name="guillemotleft" unicode="&#xab;" horiz-adv-x="944" 
d="M174 479l342 303h14v-37l-205 -266l205 -266v-37h-14zM487 479l342 303h14v-37l-205 -266l205 -266v-37h-14z" />
    <glyph glyph-name="logicalnot" unicode="&#xac;" 
d="M87 767h840v-491l-1 -1h-98v392h-741v100z" />
    <glyph glyph-name="registered" unicode="&#xae;" horiz-adv-x="1674" 
d="M751 1099l0.000976562 -373.998l3 -8c15.333 -37.333 34 -64.333 56 -81c19.333 -14.667 38 -22 56 -22h6c20.667 2.66699 41.167 15.5 61.5 38.5s35.833 55.5 46.5 97.5c8.66699 33.333 13 67.666 13 102.999c0 8.66699 -0.333008 17.667 -1 27
c-2.66699 44.667 -12 86.167 -28 124.5s-34.833 63.666 -56.5 75.999s-42.834 18.5 -63.501 18.5h-93zM984.001 576.002l81.999 -116c66.667 -94 116.667 -141 150 -141h34v-50h-346v50h45c20 0 30 7.33301 30 22c0 19.333 -23 57.333 -69 114l-75 102c-28 0 -56 14 -84 42
v-159c0 -80.667 12 -121 36 -121h53v-50h-316v50h43c24.667 0 37 40.333 37 121v538c0 80.667 -12.333 121 -37 121h-43v70h356c42.667 -0.666992 84.334 -14.667 125.001 -42c40 -27.333 70.833 -65.333 92.5 -114s32.5 -99.334 32.5 -152.001
c0 -52 -10.667 -102.167 -32 -150.5s-59.333 -93.166 -114 -134.499zM840 1456c96.667 0 190 -18.835 280 -56.502s169.667 -91.167 239 -160.5c68 -67.333 120.833 -146.666 158.5 -237.999s56.5 -185.666 56.5 -282.999c0 -98 -18.833 -192 -56.5 -282
s-91.834 -170 -162.501 -240c-70 -70 -149.667 -123.167 -239 -159.5s-183.666 -54.5 -282.999 -54.5c-97.333 0 -190 18.5 -278 55.5s-167.333 90.5 -238 160.5c-70.667 69.333 -124.5 148.5 -161.5 237.5s-55.5 183.167 -55.5 282.5c0 98.667 18.5 193 55.5 283
s90.167 169.333 159.5 238c68 69.333 147.5 122.833 238.5 160.5s186.5 56.5 286.5 56.5zM357 1197c-63.333 -64 -112.004 -137.168 -146.004 -219.501s-51 -168.833 -51 -259.5c0 -91.333 17 -177.666 51 -258.999s83.333 -154.333 148 -219
c65.333 -64 138.333 -113 219 -147s166 -51 256 -51c91.333 0 177.833 16.833 259.5 50.5s154.834 82.167 219.501 145.5c64.667 65.333 114.334 139.166 149.001 221.499s52 168.5 52 258.5c0 89.333 -17.333 175.833 -52 259.5s-83 156.834 -145 219.501
c-64 64 -137.333 113.167 -220 147.5s-168.667 51.5 -258 51.5c-91.333 0 -178.666 -17.167 -261.999 -51.5s-156.666 -83.5 -219.999 -147.5z" />
    <glyph glyph-name="macron" unicode="&#xaf;" horiz-adv-x="670" 
 />
    <glyph glyph-name="degree" unicode="&#xb0;" horiz-adv-x="674" 
d="M339 1372c-57.333 0 -106.501 -20.333 -147.501 -61s-61.5 -90 -61.5 -148s20.333 -107 61 -147s90 -60 148 -60s107 20 147 60s60 89 60 147s-20.167 107.333 -60.5 148s-89.166 61 -146.499 61zM338.999 1442c76.667 0 142.002 -27.167 196.002 -81.5
s81 -119.833 81 -196.5c0 -76 -27.333 -141.333 -82 -196s-120.334 -82 -197.001 -82c-78 0 -143.667 27 -197 81s-80 119.667 -80 197s27.167 143 81.5 197s120.166 81 197.499 81z" />
    <glyph glyph-name="plusminus" unicode="&#xb1;" 
 />
    <glyph glyph-name="uni00B2" unicode="&#xb2;" 
 />
    <glyph glyph-name="uni00B3" unicode="&#xb3;" 
 />
    <glyph glyph-name="acute" unicode="&#xb4;" horiz-adv-x="1024" 
d="M607 1375c23.333 23.333 41.833 38.999 55.5 46.999s27.167 12 40.5 12c22 0 39.833 -6.66699 53.5 -20s20.5 -30.333 20.5 -51c0 -14.667 -5.16699 -28.667 -15.5 -42s-25.833 -26.666 -46.5 -39.999l-330 -203h-69z" />
    <glyph glyph-name="mu" unicode="&#xb5;" horiz-adv-x="1180" 
 />
    <glyph glyph-name="paragraph" unicode="&#xb6;" horiz-adv-x="1024" 
d="M929 1435l-0.000976562 -70h-127v-1365h-82v1365h-166v-1365h-84v738c-116 5.33301 -207.833 39.5 -275.5 102.5s-101.5 144.833 -101.5 245.5c0 104.667 35.833 189 107.5 253s166.834 96 285.501 96h443z" />
    <glyph glyph-name="periodcentered" unicode="&#xb7;" horiz-adv-x="508" 
d="M145 740l82.001 84c10 9.33301 19.667 14 29 14c8.66699 0 19 -5.33301 31 -16l80 -86c8 -10.667 12 -20.334 12 -29.001c0 -10 -4.66699 -20.333 -14 -31l-80 -88c-13.333 -13.333 -23 -20 -29 -20c-10.667 0 -20.334 4.66699 -29.001 14l-88 101
c-6.66699 8.66699 -10 17.334 -10 26.001c0 10 5.33301 20.333 16 31z" />
    <glyph glyph-name="periodcentered" unicode="&#x2219;" horiz-adv-x="508" 
d="M145 740l82.001 84c10 9.33301 19.667 14 29 14c8.66699 0 19 -5.33301 31 -16l80 -86c8 -10.667 12 -20.334 12 -29.001c0 -10 -4.66699 -20.333 -14 -31l-80 -88c-13.333 -13.333 -23 -20 -29 -20c-10.667 0 -20.334 4.66699 -29.001 14l-88 101
c-6.66699 8.66699 -10 17.334 -10 26.001c0 10 5.33301 20.333 16 31z" />
    <glyph glyph-name="cedilla" unicode="&#xb8;" horiz-adv-x="1024" 
d="M360 -290c56.667 -34.667 107.333 -52 152 -52c44 0 75.5 7.16699 94.5 21.5s28.5 36.5 28.5 66.5s-16.333 51.333 -49 64c-26.667 10.667 -60.667 16 -102 16c-10.667 0 -22 -0.666992 -34 -2l48 176h63l-37 -104c21.333 2.66699 42 4.33398 62 5.00098
c57.333 0 102 -13.5 134 -40.5s48 -64.833 48 -113.5c0 -50.667 -19.5 -90.834 -58.5 -120.501s-92.5 -44.5 -160.5 -44.5c-72.667 0 -135.667 10.667 -189 32v96z" />
    <glyph glyph-name="uni00B9" unicode="&#xb9;" 
 />
    <glyph glyph-name="ordmasculine" unicode="&#xba;" horiz-adv-x="718" 
 />
    <glyph glyph-name="guillemotright" unicode="&#xbb;" horiz-adv-x="944" 
d="M115 176h-14v37l205 266l-205 266v37h14l342 -303zM428 176h-14v37l205 266l-205 266v37h14l342 -303z" />
    <glyph glyph-name="onequarter" unicode="&#xbc;" horiz-adv-x="1708" 
 />
    <glyph glyph-name="onehalf" unicode="&#xbd;" horiz-adv-x="1964" 
 />
    <glyph glyph-name="threequarters" unicode="&#xbe;" horiz-adv-x="1708" 
 />
    <glyph glyph-name="questiondown" unicode="&#xbf;" horiz-adv-x="748" 
 />
    <glyph glyph-name="monitor" unicode="&#xc0;" horiz-adv-x="1798" 
d="M1685 1617h-1566v-117h-3v-986h3v-117h1566v1220zM710 281l-594.001 0.000976562c-31.333 0 -58.333 11.333 -81 34c-22 21.333 -33.667 48 -35 80v1221c0 32.667 11.5 60.334 34.5 83.001s50.167 34 81.5 34h1571c33.333 0 61.5 -11.333 84.5 -34
s34.5 -50.334 34.5 -83.001c0 -12 -1.66699 -23 -5 -33v-1152c3.33301 -10 5 -21 5 -33c0 -32.667 -11.5 -60.334 -34.5 -83.001s-51.167 -34 -84.5 -34h-698c6.66699 -59.333 43.667 -111 111 -155c56 -36 120.667 -58.667 194 -68h14c124 -6 186 -12 186 -18
c0 -8 -62.167 -14.5 -186.5 -19.5s-274.166 -7.5 -449.499 -7.5c-176 0 -326.333 2.5 -451 7.5s-187 11.5 -187 19.5c0 6 58.667 11.667 176 17c77.333 8 145 31 203 69c67.333 44 104.333 95.667 111 155z" />
    <glyph glyph-name="laptop" unicode="&#xc1;" horiz-adv-x="1798" 
d="M534 519l-35 -41h-60l35 41h60zM933 202l-86 -108h-321l86 108h321zM1113 320l-35 -41h-60l35 41h60zM1159 257l-35 -41h-60l35 41h60zM1047 257l-34 -41h-60l34 41h60zM938 257l-35 -41h-333l35 41h333zM549 257l-35 -41h-60l35 41h60zM437 257l-33 -41h-60l33 41h60z
M327 257l-35 -41h-59l34 41h60zM1009 320l-34 -41h-60l34 41h60zM898 320l-35 -41h-59l34 41h60zM787 320l-34 -41h-60l35 41h59zM676 320l-34 -41h-60l34 41h60zM568 320l-34 -41h-60l34 41h60zM477 321l-34 -41h-158l35 41h157zM1153 390l-34 -41h-60l34 41h60zM1042 390
l-34 -41h-60l35 41h59zM931 390l-34 -41h-60l34 41h60zM821 390l-35 -41h-59l34 41h60zM709 390l-34 -41h-60l35 41h59zM599 390l-34 -41h-60l34 41h60zM488 390l-35 -41h-111l34 41h112zM1179 455l-34 -42h-60l34 42h60zM1069 455l-35 -42h-59l33 42h61zM957 455l-34 -42
h-60l35 42h59zM847 455l-34 -42h-60l33 42h61zM736 455l-35 -42h-59l34 42h60zM625 455l-34 -42h-60l34 42h60zM522 455l-34 -42h-98l34 42h98zM1088 519l-34 -41h-60l34 41h60zM977 519l-34 -41h-60l34 41h60zM867 519l-35 -41h-59l33 41h61zM755 519l-34 -41h-60l35 41h59
zM644 519l-33 -41h-60l33 41h60zM1685 1583h-1162v-87h-2v-731h2v-87h1162v905zM1638 542h-1162l-35 -45h-3l-298 -375h2l-36 -44h1163zM521 591c-23.333 0 -43.667 9 -61 27c-16 15.333 -24.333 34.666 -25 57.999v906c0 24 8.5 44.5 25.5 61.5s37.167 25.5 60.5 25.5h1165
c24.667 0 45.5 -8.5 62.5 -25.5s25.5 -37.5 25.5 -61.5c0 -8.66699 -1 -16.667 -3 -24v-854c2 -7.33301 3 -15.666 3 -24.999c0 -24.667 -8.5 -45.5 -25.5 -62.5s-37.833 -25.5 -62.5 -25.5h-1165zM68.999 33c-22.667 0 -39.334 4.66699 -50.001 14
c-10 7.33301 -10.333 17.333 -1 30l370 464c10 12.667 27 23.334 51 32.001s47.333 13 70 13h1165c24.667 0 42.167 -4.33301 52.5 -13s10.5 -19.334 0.5 -32.001c-4 -4.66699 -8.66699 -9 -14 -13l-348 -437c-1.33301 -4 -3.66602 -8.33301 -6.99902 -13
c-10 -12 -27 -22.5 -51 -31.5s-48.333 -13.5 -73 -13.5h-1165zM1431 321l-35 -41h-157l34 41h158zM1199 519l-35 -41h-59l34 41h60zM1310 519l-34 -41h-60l33 41h61zM1291 455l-35 -42h-60l34 42h61zM1401 455l-35 -42h-59l34 42h60zM1264 390l-34 -41h-60l34 41h60z
M1408 394l54 61h72l-96 -109h-158l44 48h84zM1269 257l-35 -41h-59l34 41h60zM1380 257l-34 -41h-60l34 41h60zM1224 320l-34 -41h-60l34 41h60zM1420 519l-34 -41h-60l35 41h59zM1582 519l-34 -41h-111l34 41h111z" />
    <glyph glyph-name="descktop" unicode="&#xc2;" horiz-adv-x="2194" 
d="M475 293c-50 0 -92.833 17.833 -128.5 53.5s-53.5 78.5 -53.5 128.5v805c0 50 17.833 93 53.5 129s78.5 54 128.5 54h1244c50 0 93 -18 129 -54s54 -79 54 -129v-805c0 -50 -18 -92.833 -54 -128.5s-79 -53.5 -129 -53.5h-1244zM439 1280v-805
c0 -9.33301 3.66699 -17.666 11 -24.999s15.666 -11 24.999 -11h1244c10 0 18.5 3.66699 25.5 11s10.5 15.666 10.5 24.999v805c0 10 -3.5 18.667 -10.5 26s-15.5 11 -25.5 11h-1244c-9.33301 0 -17.666 -3.66699 -24.999 -11s-11 -16 -11 -26zM2011 219h183.002v-109
c0 -30.667 -17.833 -56.667 -53.5 -78s-78.834 -32 -129.501 -32h-1828c-50.667 0 -93.834 10.667 -129.501 32s-53.5 47.333 -53.5 78v109h183h1828zM1189 110c12 0 18 6 18 18s-6 18 -18 18h-183c-12.667 0 -19 -6 -19 -18s6.33301 -18 19 -18h183z" />
    <glyph glyph-name="tablet" unicode="&#xc3;" horiz-adv-x="1800" 
d="M968 47.5c0 21.667 -7.16699 40.5 -21.5 56.5s-31.333 24 -51 24s-36.834 -8 -51.501 -24s-22 -34.833 -22 -56.5s7.33301 -40.5 22 -56.5s31.834 -24 51.501 -24s36.667 8 51 24s21.5 34.833 21.5 56.5zM1407 249v1210c0 10.667 -3.5 20 -10.5 28s-15.5 12 -25.5 12
h-951c-10 0 -18.667 -4 -26 -12s-11 -17.333 -11 -28v-1210c0 -10.667 3.66699 -20 11 -28s16 -12 26 -12h951c10 0 18.5 4 25.5 12s10.5 17.333 10.5 28zM1147 118v-155h140v155h-140zM622 143l-85 -94l85 -94v188zM1554 1458v-1370c0 -56 -18 -103.667 -54 -143
s-79 -59 -129 -59h-951c-50.667 0 -93.834 19.667 -129.501 59s-53.5 87 -53.5 143v1370c0 56 17.833 103.667 53.5 143s78.834 59 129.501 59h951c50 0 93 -19.667 129 -59s54 -87 54 -143z" />
    <glyph glyph-name="ipad" unicode="&#xc4;" horiz-adv-x="2000" 
d="M1100 173.5c0 19.667 -7.16699 36.667 -21.5 51s-31.333 21.5 -51 21.5s-36.834 -7.16699 -51.501 -21.5s-22 -31.333 -22 -51s7.33301 -36.834 22 -51.501s31.834 -22 51.501 -22s36.667 7.33301 51 22s21.5 31.834 21.5 51.501zM1814 329v1097
c0 10 -5.66699 18.667 -17 26s-25.333 11 -42 11h-1549c-16 0 -30 -3.66699 -42 -11s-18 -16 -18 -26v-1097c0 -10 6 -18.5 18 -25.5s26 -10.5 42 -10.5h1549c16.667 0 30.667 3.5 42 10.5s17 15.5 17 25.5zM1994 1426l0.000976562 -1243
c0 -50.667 -27.333 -93.834 -82 -129.501s-75.334 -53.5 -62.001 -53.5h-1710c14.667 0 -5 17.833 -59 53.5s-81 78.834 -81 129.501v1243c0 50.667 27 93.834 81 129.501s93.667 50.5 119 44.5h1645c-10 6 12.333 -8.83301 67 -44.5s82 -78.834 82 -129.501z" />
    <glyph glyph-name="iphone" unicode="&#xc5;" horiz-adv-x="877" 
d="M530 146.5c0 25 -8.83301 46.5 -26.5 64.5s-39.167 27 -64.5 27s-47 -9 -65 -27s-27 -39.5 -27 -64.5s9 -46.5 27 -64.5s39.667 -27 65 -27s46.833 9 64.5 27s26.5 39.5 26.5 64.5zM768 329v805c0 10 -3.66699 18.5 -11 25.5s-16 10.5 -26 10.5h-585
c-10 0 -18.5 -3.5 -25.5 -10.5s-10.5 -15.5 -10.5 -25.5v-805c0 -10 3.5 -18.5 10.5 -25.5s15.5 -10.5 25.5 -10.5h585c10 0 18.667 3.5 26 10.5s11 15.5 11 25.5zM549 1298.5c0 12.333 -6.33301 18.5 -19 18.5h-183c-12 0 -18 -6.16699 -18 -18.5s6 -18.5 18 -18.5h183
c12.667 0 19 6.16699 19 18.5zM878 1317v-1171c0 -39.333 -14.5 -73.5 -43.5 -102.5s-63.5 -43.5 -103.5 -43.5h-585c-39.333 0 -73.5 14.5 -102.5 43.5s-43.5 63.167 -43.5 102.5v1171c0 39.333 14.5 73.5 43.5 102.5s63.167 43.5 102.5 43.5h585
c40 0 74.5 -14.5 103.5 -43.5s43.5 -63.167 43.5 -102.5z" />
    <glyph glyph-name="phone" unicode="&#xc6;" horiz-adv-x="877" 
d="M560 163c0 10 -8.83301 18.667 -26.5 26s-39.167 11 -64.5 11s-47 -3.66699 -65 -11s-27 -16 -27 -26s9 -18.667 27 -26s39.667 -11 65 -11s46.833 3.66699 64.5 11s26.5 16 26.5 26zM768 329v805c0 10 -3.66699 18.5 -11 25.5s-16 10.5 -26 10.5h-585
c-10 0 -18.5 -3.5 -25.5 -10.5s-10.5 -15.5 -10.5 -25.5v-805c0 -10 3.5 -18.5 10.5 -25.5s15.5 -10.5 25.5 -10.5h585c10 0 18.667 3.5 26 10.5s11 15.5 11 25.5zM549 1298.5c0 12.333 -6.33301 18.5 -19 18.5h-183c-12 0 -18 -6.16699 -18 -18.5s6 -18.5 18 -18.5h183
c12.667 0 19 6.16699 19 18.5zM878 1317v-1171c0 -39.333 -14.5 -73.5 -43.5 -102.5s-63.5 -43.5 -103.5 -43.5h-585c-39.333 0 -73.5 14.5 -102.5 43.5s-43.5 63.167 -43.5 102.5v1171c0 39.333 14.5 73.5 43.5 102.5s63.167 43.5 102.5 43.5h585
c40 0 74.5 -14.5 103.5 -43.5s43.5 -63.167 43.5 -102.5z" />
    <glyph glyph-name="earphone" unicode="&#xc7;" horiz-adv-x="1399" 
d="M1408 296c0 -18 -3.33301 -41.5 -10 -70.5s-13.667 -51.833 -21 -68.5c-14 -33.333 -54.667 -68.666 -122 -105.999c-62.667 -34 -124.667 -51 -186 -51c-18 0 -35.5 1.16699 -52.5 3.5s-36.167 6.5 -57.5 12.5s-37.166 10.833 -47.499 14.5l-55.5 20.5
c-26.667 10 -43 16 -49 18c-65.333 23.333 -123.666 51 -174.999 83c-85.333 52.667 -173.5 124.5 -264.5 215.5s-162.833 179.167 -215.5 264.5c-32 51.333 -59.667 109.666 -83 174.999c-2 6 -8 22.333 -18 49l-20.5 55.5c-3.66699 10.333 -8.5 26.166 -14.5 47.499
s-10.167 40.5 -12.5 57.5s-3.5 34.5 -3.5 52.5c0 61.333 17 123.333 51 186c37.333 67.333 72.666 108 105.999 122c16.667 7.33301 39.5 14.333 68.5 21s52.5 10 70.5 10c9.33301 0 16.333 -1 21 -3c12 -4 29.667 -29.333 53 -76l30 -54l35 -63.5l31 -53.5
c2 -2.66699 7.83301 -11 17.5 -25s16.834 -25.833 21.501 -35.5s7 -19.167 7 -28.5c0 -13.333 -9.5 -30 -28.5 -50s-39.667 -38.333 -62 -55s-43 -34.334 -62 -53.001s-28.5 -34 -28.5 -46c0 -6 1.66699 -13.5 5 -22.5s6.16602 -15.833 8.49902 -20.5s7 -12.667 14 -24
s10.833 -17.666 11.5 -18.999c50.667 -91.333 108.667 -169.666 174 -234.999s143.666 -123.333 234.999 -174c1.33301 -0.666992 7.66602 -4.5 18.999 -11.5s19.333 -11.667 24 -14s11.5 -5.16602 20.5 -8.49902s16.5 -5 22.5 -5c12 0 27.333 9.5 46 28.5
s36.334 39.667 53.001 62s35 43 55 62s36.667 28.5 50 28.5c9.33301 0 18.833 -2.33301 28.5 -7s21.5 -11.834 35.5 -21.501s22.333 -15.5 25 -17.5l53.5 -31l63.5 -35l54 -30c46.667 -23.333 72 -41 76 -53c2 -4.66699 3 -11.667 3 -21z" />
    <glyph glyph-name="telephone" unicode="&#xc8;" horiz-adv-x="1800" 
d="M113 1032c-13.333 12 -27.6719 29.999 -43.0049 53.999s-26 44.333 -32 61c-14 31.333 -9.66699 82 13 152c22 64 55.667 116.667 101 158c12.667 12 26.167 22.667 40.5 32s31.333 19 51 29s34.667 17 45 21s28.666 11.5 54.999 22.5s42.5 18.167 48.5 21.5
c64.667 26.667 127.334 46 188.001 58c100 20 215.667 29.333 347 28s246.666 -14 345.999 -38c59.333 -14 121 -35.333 185 -64c6 -3.33301 22 -10.5 48 -21.5s44.167 -19 54.5 -24s25.166 -12.667 44.499 -23s35.833 -20.5 49.5 -30.5s27.167 -21.333 40.5 -34
c44 -42 75.333 -95.333 94 -160c20.667 -70 23.667 -121 9 -153c-6.66699 -16 -18.167 -35.833 -34.5 -59.5s-31.5 -41.167 -45.5 -52.5c-6 -6 -11.667 -10 -17 -12c-12 -5.33301 -43 0.333984 -93 17.001c-14.667 3.33301 -34.834 8.83301 -60.501 16.5l-70.5 20.5
c-21.333 6 -41.333 11.333 -60 16c-3.33301 0 -13.666 1.5 -30.999 4.5s-31.166 6.33301 -41.499 10s-18.5 8.83398 -24.5 15.501c-10 8.66699 -15.167 26.167 -15.5 52.5s1.83398 52.5 6.50098 78.5s7.33398 51.667 8.00098 77s-3.33301 42 -12 50
c-4.66699 4 -11.334 8 -20.001 12s-15.5 6.66699 -20.5 8l-27 7c-13 3.33301 -20.5 5 -22.5 5c-101.333 28.667 -199.166 43.834 -293.499 45.501s-193.5 -10.833 -297.5 -37.5c-0.666992 0 -7.66699 -1.33301 -21 -4s-22.666 -4.83398 -27.999 -6.50098
s-12.5 -4.33398 -21.5 -8.00098s-15.5 -7.5 -19.5 -11.5c-8.66699 -8 -13 -24.5 -13 -49.5s1.66699 -50.5 5 -76.5s4.33301 -52 3 -78s-6.66602 -43.333 -15.999 -52c-6.66699 -6.66699 -15.167 -11.5 -25.5 -14.5s-24.166 -6 -41.499 -9s-27.666 -4.5 -30.999 -4.5l-61 -15
l-71 -18c-26 -6.66699 -46.333 -11.667 -61 -15c-50.667 -14 -81.667 -18.667 -93 -14c-5.33301 2 -11.333 6.33301 -18 13zM1238.99 1235c0 -24 -31.167 -44.167 -93.5 -60.5s-137.833 -24.5 -226.5 -24.5c-88 0 -163.333 8.16699 -226 24.5s-94 36.5 -94 60.5
c0 22.667 31.333 42.334 94 59.001s138 25 226 25c88.667 0 164.167 -8.33301 226.5 -25s93.5 -36.334 93.5 -59.001zM573.494 502.499c14.333 -11.667 21.5 -25.834 21.5 -42.501s-7.16699 -30.834 -21.5 -42.501s-31.5 -17.5 -51.5 -17.5s-37 5.83301 -51 17.5
s-21 25.834 -21 42.501s7 30.834 21 42.501s31 17.5 51 17.5s37.167 -5.83301 51.5 -17.5zM570.494 701.499c14.333 -11.667 21.5 -25.834 21.5 -42.501s-7.16699 -30.834 -21.5 -42.501s-31.5 -17.5 -51.5 -17.5s-37 5.83301 -51 17.5s-21 25.834 -21 42.501
s7 30.834 21 42.501s31 17.5 51 17.5s37.167 -5.83301 51.5 -17.5zM697.494 854.499c14.333 -11.667 21.5 -25.834 21.5 -42.501c0 -16 -7.16699 -30 -21.5 -42s-31.5 -18 -51.5 -18s-37 6 -51 18s-21 26 -21 42c0 16.667 7 30.834 21 42.501s31 17.5 51 17.5
s37.167 -5.83301 51.5 -17.5zM875.994 941.499c14 -11.667 21 -25.834 21 -42.501s-7 -30.834 -21 -42.501s-31 -17.5 -51 -17.5s-37.167 5.83301 -51.5 17.5s-21.5 25.834 -21.5 42.501s7.16699 30.834 21.5 42.501s31.5 17.5 51.5 17.5s37 -5.83301 51 -17.5z
M1081.49 909.999c14.333 -12 21.5 -26 21.5 -42c0 -16.667 -7.16699 -30.834 -21.5 -42.501s-31.5 -17.5 -51.5 -17.5s-37 5.83301 -51 17.5s-21 25.834 -21 42.501c0 16 7 30 21 42s31 18 51 18s37.167 -6 51.5 -18zM1263.99 783.999c14 -12 21 -26 21 -42
c0 -16.667 -7 -30.834 -21 -42.501s-31 -17.5 -51 -17.5s-37.167 5.83301 -51.5 17.5s-21.5 25.834 -21.5 42.501c0 16 7.16699 30 21.5 42s31.5 18 51.5 18s37 -6 51 -18zM1333.99 617.499c14 -11.667 21 -25.834 21 -42.501s-7 -30.834 -21 -42.501s-31 -17.5 -51 -17.5
s-37.167 5.83301 -51.5 17.5s-21.5 25.834 -21.5 42.501s7.16699 30.834 21.5 42.501s31.5 17.5 51.5 17.5s37 -5.83301 51 -17.5zM680.494 341.499c14.333 -11.667 21.5 -25.834 21.5 -42.501s-7.16699 -30.834 -21.5 -42.501s-31.5 -17.5 -51.5 -17.5
s-37 5.83301 -51 17.5s-21 25.834 -21 42.501s7 30.834 21 42.501s31 17.5 51 17.5s37.167 -5.83301 51.5 -17.5zM119.994 889.999l61 54c49.333 16 90 27.833 122 35.5s61.333 14.167 88 19.5l75 15c4 0.666992 16.667 2.5 38 5.5s38.5 6 51.5 9s23.5 7.83301 31.5 14.5
c12.667 9.33301 19.5 28 20.5 56s-0.5 56 -4.5 84c-3.33301 18 -5.33301 35.667 -6 53h641c-0.666992 -21.333 -3.33398 -43 -8.00098 -65c-6 -28 -8.66699 -56 -8 -84s7 -46.667 19 -56c7.33301 -6.66699 17.5 -12 30.5 -16s29.833 -7.5 50.5 -10.5
s33.334 -4.5 38.001 -4.5l74.5 -18.5l87 -21.5c31.667 -8 56.834 -14 75.501 -18c35.333 -10.667 60.666 -40.667 75.999 -90v-679h6v-168h-1559v885zM1358.99 378.999c28 56 42 117.331 42 183.998c0 126 -50.5 233.5 -151.5 322.5s-222.833 133.5 -365.5 133.5
c-143.333 0 -265.5 -44.5 -366.5 -133.5s-151.5 -196.5 -151.5 -322.5c0 -125.333 50.667 -232.666 152 -321.999c30 -26.667 62.333 -49.334 97 -68.001h537c34 18.667 66.667 41.334 98 68.001c14 12.667 27 25.667 39 39c-2 0 -4 0.333008 -6 1
c-18.667 4.66699 -30.667 17 -36 37c-16 20.667 -29.5 43.834 -40.5 69.501s-5.16699 30.5 17.5 14.5c60.667 -36.667 99.334 -47.667 116.001 -33c7.33301 6 13.666 9.33301 18.999 10z" />
    <glyph glyph-name="tabletlandscape" unicode="&#xc9;" horiz-adv-x="2100" 
d="M1903 846c-25.333 0 -47.333 -7.16699 -66 -21.5s-28 -31.333 -28 -51s9.33301 -36.834 28 -51.501s40.667 -22 66 -22s47.5 7.33301 66.5 22s28.5 31.834 28.5 51.501s-9.5 36.667 -28.5 51s-41.167 21.5 -66.5 21.5zM1667 1285h-1422c-12.667 0 -23.667 -3.5 -33 -10.5
s-14 -15.5 -14 -25.5v-951c0 -10 4.66699 -18.667 14 -26s20.333 -11 33 -11h1422c12 0 22.833 3.66699 32.5 11s14.5 16 14.5 26v951c0 10 -4.83301 18.5 -14.5 25.5s-20.5 10.5 -32.5 10.5zM1820 1025h183v140h-183v-140zM1791 500l111 -85l110 85h-221zM78.5 169
c-46.333 36 -69.5 79 -69.5 129v951c0 50.667 23.167 93.834 69.5 129.501s102.166 53.5 167.499 53.5h1610c65.333 0 121.166 -17.833 167.499 -53.5s69.5 -78.834 69.5 -129.501v-951c0 -50 -23.167 -93 -69.5 -129s-102.166 -54 -167.499 -54h-1610
c-65.333 0 -121.166 18 -167.499 54z" />
    <glyph glyph-name="Ecircumflex" unicode="&#xca;" horiz-adv-x="1151" 
 />
    <glyph glyph-name="Edieresis" unicode="&#xcb;" horiz-adv-x="1151" 
 />
    <glyph glyph-name="Igrave" unicode="&#xcc;" horiz-adv-x="657" 
 />
    <glyph glyph-name="Iacute" unicode="&#xcd;" horiz-adv-x="657" 
 />
    <glyph glyph-name="Icircumflex" unicode="&#xce;" horiz-adv-x="657" 
 />
    <glyph glyph-name="Idieresis" unicode="&#xcf;" horiz-adv-x="657" 
 />
    <glyph glyph-name="Eth" unicode="&#xd0;" horiz-adv-x="1518" 
 />
    <glyph glyph-name="Ntilde" unicode="&#xd1;" horiz-adv-x="1554" 
 />
    <glyph glyph-name="Ograve" unicode="&#xd2;" horiz-adv-x="1614" 
 />
    <glyph glyph-name="Oacute" unicode="&#xd3;" horiz-adv-x="1614" 
 />
    <glyph glyph-name="Ocircumflex" unicode="&#xd4;" horiz-adv-x="1614" 
 />
    <glyph glyph-name="Otilde" unicode="&#xd5;" horiz-adv-x="1614" 
 />
    <glyph glyph-name="Odieresis" unicode="&#xd6;" horiz-adv-x="1614" 
 />
    <glyph glyph-name="multiply" unicode="&#xd7;" 
d="M507 618l-247 -247l-99 99l247 247l-247 248l99 98l247 -247l248 247l98 -99l-247 -247l247 -247l-99 -99z" />
    <glyph glyph-name="Oslash" unicode="&#xd8;" horiz-adv-x="1614" 
 />
    <glyph glyph-name="Ugrave" unicode="&#xd9;" horiz-adv-x="1501" 
 />
    <glyph glyph-name="Uacute" unicode="&#xda;" horiz-adv-x="1501" 
 />
    <glyph glyph-name="Ucircumflex" unicode="&#xdb;" horiz-adv-x="1501" 
 />
    <glyph glyph-name="Udieresis" unicode="&#xdc;" horiz-adv-x="1501" 
 />
    <glyph glyph-name="Yacute" unicode="&#xdd;" horiz-adv-x="1233" 
 />
    <glyph glyph-name="Thorn" unicode="&#xde;" horiz-adv-x="1120" 
 />
    <glyph glyph-name="germandbls" unicode="&#xdf;" horiz-adv-x="1251" 
 />
    <glyph glyph-name="agrave" unicode="&#xe0;" horiz-adv-x="922" 
 />
    <glyph glyph-name="aacute" unicode="&#xe1;" horiz-adv-x="922" 
 />
    <glyph glyph-name="acircumflex" unicode="&#xe2;" horiz-adv-x="922" 
 />
    <glyph glyph-name="atilde" unicode="&#xe3;" horiz-adv-x="922" 
 />
    <glyph glyph-name="adieresis" unicode="&#xe4;" horiz-adv-x="922" 
 />
    <glyph glyph-name="aring" unicode="&#xe5;" horiz-adv-x="922" 
 />
    <glyph glyph-name="ae" unicode="&#xe6;" horiz-adv-x="1454" 
 />
    <glyph glyph-name="ccedilla" unicode="&#xe7;" horiz-adv-x="905" 
 />
    <glyph glyph-name="egrave" unicode="&#xe8;" horiz-adv-x="909" 
 />
    <glyph glyph-name="eacute" unicode="&#xe9;" horiz-adv-x="909" 
 />
    <glyph glyph-name="ecircumflex" unicode="&#xea;" horiz-adv-x="909" 
 />
    <glyph glyph-name="edieresis" unicode="&#xeb;" horiz-adv-x="909" 
 />
    <glyph glyph-name="igrave" unicode="&#xec;" horiz-adv-x="514" 
 />
    <glyph glyph-name="iacute" unicode="&#xed;" horiz-adv-x="514" 
 />
    <glyph glyph-name="icircumflex" unicode="&#xee;" horiz-adv-x="514" 
 />
    <glyph glyph-name="idieresis" unicode="&#xef;" horiz-adv-x="514" 
 />
    <glyph glyph-name="eth" unicode="&#xf0;" horiz-adv-x="1139" 
 />
    <glyph glyph-name="ntilde" unicode="&#xf1;" horiz-adv-x="1108" 
 />
    <glyph glyph-name="ograve" unicode="&#xf2;" horiz-adv-x="1010" 
 />
    <glyph glyph-name="oacute" unicode="&#xf3;" horiz-adv-x="1010" 
 />
    <glyph glyph-name="ocircumflex" unicode="&#xf4;" horiz-adv-x="1010" 
 />
    <glyph glyph-name="otilde" unicode="&#xf5;" horiz-adv-x="1010" 
 />
    <glyph glyph-name="odieresis" unicode="&#xf6;" horiz-adv-x="1010" 
 />
    <glyph glyph-name="divide" unicode="&#xf7;" 
d="M87 647v140h839l1 -1v-139h-840zM398 408l82.001 84c10 9.33301 19.667 14 29 14c8.66699 0 19 -5.33301 31 -16l80 -86c8 -10.667 12 -20.334 12 -29.001c0 -10 -4.66699 -20.333 -14 -31l-80 -88c-13.333 -13.333 -23 -20 -29 -20
c-10.667 0 -20.334 4.66699 -29.001 14l-88 101c-6.66699 8.66699 -10 17.334 -10 26.001c0 10 5.33301 20.333 16 31zM398.001 1101l82.001 84c10 9.33301 19.667 14 29 14c8.66699 0 19 -5.33301 31 -16l80 -86c8 -10.667 12 -20.334 12 -29.001
c0 -10 -4.66699 -20.333 -14 -31l-80 -88c-13.333 -13.333 -23 -20 -29 -20c-10.667 0 -20.334 4.66699 -29.001 14l-88 101c-6.66699 8.66699 -10 17.334 -10 26.001c0 10 5.33301 20.333 16 31z" />
    <glyph glyph-name="oslash" unicode="&#xf8;" horiz-adv-x="1010" 
 />
    <glyph glyph-name="ugrave" unicode="&#xf9;" horiz-adv-x="1059" 
 />
    <glyph glyph-name="uacute" unicode="&#xfa;" horiz-adv-x="1059" 
 />
    <glyph glyph-name="ucircumflex" unicode="&#xfb;" horiz-adv-x="1059" 
 />
    <glyph glyph-name="udieresis" unicode="&#xfc;" horiz-adv-x="1059" 
 />
    <glyph glyph-name="yacute" unicode="&#xfd;" horiz-adv-x="868" 
 />
    <glyph glyph-name="thorn" unicode="&#xfe;" horiz-adv-x="1010" 
 />
    <glyph glyph-name="ydieresis" unicode="&#xff;" horiz-adv-x="868" 
 />
    <glyph glyph-name="dotlessi" unicode="&#x131;" horiz-adv-x="514" 
d="M328 223c0 -115.333 33.333 -173 100 -173h46v-50h-442v50h46c66.667 0 100 57.667 100 173v432c0 51.333 -37 77 -111 77h-48v44c148 46 235 106.667 261 182h48v-735z" />
    <glyph glyph-name="circumflex" unicode="&#x2c6;" horiz-adv-x="1024" 
d="M221 1079l232 355h118l232 -355h-58l-233 216l-233 -216h-58z" />
    <glyph glyph-name="caron" unicode="&#x2c7;" horiz-adv-x="1024" 
d="M221 1434h58l233 -214l233 214h58l-232 -356h-118z" />
    <glyph glyph-name="uni02C9" unicode="&#x2c9;" horiz-adv-x="1024" 
d="M254 1195v125h516v-125h-516z" />
    <glyph glyph-name="breve" unicode="&#x2d8;" horiz-adv-x="1024" 
d="M219 1349l50.998 0.00292969c11.333 -48.667 36.333 -84.334 75 -107.001s94.334 -34 167.001 -34s128 11.167 166 33.5s62.667 58.166 74 107.499h51c-13.333 -88.667 -44.666 -155.834 -93.999 -201.501s-115 -68.5 -197 -68.5c-81.333 0 -147 23 -197 69
s-82 113 -96 201z" />
    <glyph glyph-name="dotaccent" unicode="&#x2d9;" horiz-adv-x="1024" 
d="M422 1289l69 71.999c4 4 8.33301 7 13 9s9.33398 3 14.001 3c4 0 8.16699 -1 12.5 -3s8.5 -5 12.5 -9l71 -76c3.33301 -2.66699 5.66602 -6 6.99902 -10s2 -8.66699 2 -14c-0.666992 -6 -1.66699 -11 -3 -15s-4 -8 -8 -12l-71 -76c-8 -7.33301 -13.333 -11.833 -16 -13.5
s-5 -2.5 -7 -2.5c-6.66699 0 -12.167 0.833008 -16.5 2.5s-7.83301 4.5 -10.5 8.5l-75 87c-2.66699 2.66699 -4.66699 5.83398 -6 9.50098s-2 8.16699 -2 13.5c0 4 1 8.16699 3 12.5s5.66699 8.83301 11 13.5z" />
    <glyph glyph-name="ring" unicode="&#x2da;" horiz-adv-x="1024" 
d="M411 1257c0 -28 9.66699 -51.667 29 -71s43 -29 71 -29s51.667 9.66699 71 29s29 43 29 71c0 26.667 -9.83301 49.834 -29.5 69.501s-43.167 29.5 -70.5 29.5s-50.833 -9.83301 -70.5 -29.5s-29.5 -42.834 -29.5 -69.501zM335 1257c0 50 17 91.999 51 125.999
s75.667 51 125 51c50.667 0 93.167 -17.167 127.5 -51.5s51.5 -76.166 51.5 -125.499c0 -50 -17.167 -92.167 -51.5 -126.5s-76.833 -51.5 -127.5 -51.5c-49.333 0 -91 17.167 -125 51.5s-51 76.5 -51 126.5z" />
    <glyph glyph-name="ogonek" unicode="&#x2db;" horiz-adv-x="1024" 
d="M640 0c-47.333 -41.333 -84.168 -81.1699 -110.501 -119.503s-39.5 -75.833 -39.5 -112.5c0 -31.333 9 -56.333 27 -75s42.333 -28 73 -28c26.667 0 49.834 5.16699 69.501 15.5s36.167 26.5 49.5 48.5l28 -16c-24 -42 -54.167 -74.333 -90.5 -97
s-76.166 -34 -119.499 -34c-46.667 0 -84.667 11.833 -114 35.5s-44 53.834 -44 90.501c0 50.667 20.167 102.834 60.5 156.501s94.166 98.834 161.499 135.501h49z" />
    <glyph glyph-name="tilde" unicode="&#x2dc;" horiz-adv-x="1024" 
d="M808 1382c-13.333 -68.667 -36.1689 -120 -68.502 -154s-74.5 -51 -126.5 -51h-4c-33.333 0 -71 7.66699 -113 23c-44 16 -82 24 -114 24c-26 0 -46.167 -6.83301 -60.5 -20.5s-25.5 -37.5 -33.5 -71.5h-54c12.667 70.667 35.334 123.5 68.001 158.5
s75.667 52.5 129 52.5c30.667 -0.666992 68.334 -8.66699 113.001 -24c42.667 -15.333 80 -23 112 -23h4c24 0 43.333 6.66699 58 20s26.667 35.333 36 66h54z" />
    <glyph glyph-name="hungarumlaut" unicode="&#x2dd;" horiz-adv-x="1024" 
d="M217 1079l144 273.002c16 29.333 31.167 50.333 45.5 63s29.833 19 46.5 19c18.667 0 34.667 -6.66699 48 -20s20 -29 20 -47c0 -10.667 -3.5 -22.334 -10.5 -35.001s-17.167 -26.334 -30.5 -41.001l-205 -212h-58zM502 1079l144 273.002
c16 29.333 31.167 50.333 45.5 63s29.833 19 46.5 19c18.667 0 34.667 -6.66699 48 -20s20 -29 20 -47c0 -10.667 -3.5 -22.334 -10.5 -35.001s-17.167 -26.334 -30.5 -41.001l-205 -212h-58z" />
    <glyph glyph-name="endash" unicode="&#x2013;" horiz-adv-x="1108" 
d="M56 419v120h996v-120h-996z" />
    <glyph glyph-name="emdash" unicode="&#x2014;" horiz-adv-x="2048" 
d="M0 419v120h2048v-120h-2048z" />
    <glyph glyph-name="quoteleft" unicode="&#x2018;" horiz-adv-x="557" 
d="M319 1016c-29.333 0 -58.832 21.833 -88.499 65.5s-44.5 94.167 -44.5 151.5c0 72.667 23.667 148.167 71 226.5s93.666 117.5 138.999 117.5v-43c-48.667 -28.667 -77.667 -92 -87 -190c0 -79.333 43 -133 129 -161v-42z" />
    <glyph glyph-name="quoteright" unicode="&#x2019;" horiz-adv-x="557" 
d="M238 1577c29.333 0 58.832 -21.833 88.499 -65.5s44.5 -94.167 44.5 -151.5c0 -72.667 -23.667 -148.167 -71 -226.5s-93.666 -117.5 -138.999 -117.5v43c48.667 28.667 77.667 92 87 190c0 79.333 -43 133 -129 161v42z" />
    <glyph glyph-name="quotesinglbase" unicode="&#x201a;" horiz-adv-x="557" 
d="M238 281c29.333 0 58.832 -21.833 88.499 -65.5s44.5 -94.167 44.5 -151.5c0 -72.667 -23.667 -148.167 -71 -226.5s-93.666 -117.5 -138.999 -117.5v43c48.667 28.667 77.667 92 87 190c0 79.333 -43 133 -129 161v42z" />
    <glyph glyph-name="quotedblleft" unicode="&#x201c;" horiz-adv-x="910" 
d="M319 1016c-29.333 0 -58.832 21.833 -88.499 65.5s-44.5 94.167 -44.5 151.5c0 72.667 23.667 148.167 71 226.5s93.666 117.5 138.999 117.5v-43c-48.667 -28.667 -77.667 -92 -87 -190c0 -79.333 43 -133 129 -161v-42zM672.001 1016
c-29.333 0 -58.832 21.833 -88.499 65.5s-44.5 94.167 -44.5 151.5c0 72.667 23.667 148.167 71 226.5s93.666 117.5 138.999 117.5v-43c-48.667 -28.667 -77.667 -92 -87 -190c0 -79.333 43 -133 129 -161v-42z" />
    <glyph glyph-name="quotedblright" unicode="&#x201d;" horiz-adv-x="910" 
d="M238 1577c29.333 0 58.832 -21.833 88.499 -65.5s44.5 -94.167 44.5 -151.5c0 -72.667 -23.667 -148.167 -71 -226.5s-93.666 -117.5 -138.999 -117.5v43c48.667 28.667 77.667 92 87 190c0 79.333 -43 133 -129 161v42zM590.999 1577
c29.333 0 58.832 -21.833 88.499 -65.5s44.5 -94.167 44.5 -151.5c0 -72.667 -23.667 -148.167 -71 -226.5s-93.666 -117.5 -138.999 -117.5v43c48.667 28.667 77.667 92 87 190c0 79.333 -43 133 -129 161v42z" />
    <glyph glyph-name="quotedblbase" unicode="&#x201e;" horiz-adv-x="910" 
d="M238 281c29.333 0 58.832 -21.833 88.499 -65.5s44.5 -94.167 44.5 -151.5c0 -72.667 -23.667 -148.167 -71 -226.5s-93.666 -117.5 -138.999 -117.5v43c48.667 28.667 77.667 92 87 190c0 79.333 -43 133 -129 161v42zM590.999 281
c29.333 0 58.832 -21.833 88.499 -65.5s44.5 -94.167 44.5 -151.5c0 -72.667 -23.667 -148.167 -71 -226.5s-93.666 -117.5 -138.999 -117.5v43c48.667 28.667 77.667 92 87 190c0 79.333 -43 133 -129 161v42z" />
    <glyph glyph-name="dagger" unicode="&#x2020;" 
d="M486 1022c-5.33301 64.667 -23.332 123.999 -53.999 177.999c-38 67.333 -57 110.333 -57 129c0 32.667 12 58.834 36 78.501s56 29.5 96 29.5c38 0 69.5 -9.16699 94.5 -27.5s37.5 -42.166 37.5 -71.499c0 -21.333 -18.333 -67 -55 -137
c-30.667 -56.667 -49 -116.334 -55 -179.001c64 5.33301 123 23.333 177 54c67.333 38 110.333 57 129 57c32.667 0 59 -12 79 -36s30 -56 30 -96c0 -38 -9.16699 -69.5 -27.5 -94.5s-42.5 -37.5 -72.5 -37.5c-21.333 0 -66.666 18.333 -135.999 55
c-56.667 30.667 -116.334 49.667 -179.001 57c5.33301 -117.333 42 -209.666 110 -276.999c-70.667 -306.667 -108 -631.334 -112 -974.001h-38c-4 342.667 -42 667.334 -114 974.001c68 67.333 105 159.666 111 276.999c-64 -6.66699 -123.333 -25 -178 -55
c-67.333 -38 -110.333 -57 -129 -57c-32.667 0 -58.834 12 -78.501 36s-29.5 56 -29.5 96c0 38 9.16699 69.5 27.5 94.5s42.166 37.5 71.499 37.5c21.333 0 67 -18.667 137 -56c56.667 -30.667 116.334 -49 179.001 -55z" />
    <glyph glyph-name="daggerdbl" unicode="&#x2021;" 
d="M528 186c62.667 7.33301 122.334 26.3311 179.001 56.998c69.333 36.667 114.666 55 135.999 55c30 0 54.167 -12.5 72.5 -37.5s27.5 -56.5 27.5 -94.5c0 -40 -10 -72 -30 -96s-46.333 -36 -79 -36c-18.667 0 -61.667 19 -129 57c-54 30.667 -113 48.667 -177 54
c6 -62.667 24.333 -122.334 55 -179.001c36.667 -70 55 -115.667 55 -137c0 -29.333 -12.5 -53.166 -37.5 -71.499s-56.5 -27.5 -94.5 -27.5c-40 0 -72 9.83301 -96 29.5s-36 45.834 -36 78.501c0 18.667 19 61.667 57 129c30.667 54 48.667 113.333 54 178
c-62.667 -6 -122.334 -24.333 -179.001 -55c-70 -37.333 -115.667 -56 -137 -56c-29.333 0 -53.166 12.5 -71.499 37.5s-27.5 56.5 -27.5 94.5c0 40 9.83301 72 29.5 96s45.834 36 78.501 36c18.667 0 61.667 -19 129 -57c54.667 -30 114 -48.333 178 -55
c-6 150.667 -43 283.334 -111 398.001c68 114 105 246.333 111 397c-64 -6.66699 -123.333 -25 -178 -55c-67.333 -38 -110.333 -57 -129 -57c-32.667 0 -58.834 12 -78.501 36s-29.5 56 -29.5 96c0 38 9.16699 69.5 27.5 94.5s42.166 37.5 71.499 37.5
c21.333 0 67 -18.667 137 -56c56.667 -30.667 116.334 -49 179.001 -55c-5.33301 64.667 -23.333 124 -54 178c-38 67.333 -57 110.333 -57 129c0 32.667 12 58.834 36 78.501s56 29.5 96 29.5c38 0 69.5 -9.16699 94.5 -27.5s37.5 -42.166 37.5 -71.499
c0 -21.333 -18.333 -67 -55 -137c-30.667 -56.667 -49 -116.334 -55 -179.001c64 5.33301 123 23.333 177 54c67.333 38 110.333 57 129 57c32.667 0 59 -12 79 -36s30 -56 30 -96c0 -38 -9.16699 -69.5 -27.5 -94.5s-42.5 -37.5 -72.5 -37.5
c-21.333 0 -66.666 18.333 -135.999 55c-56.667 30.667 -116.334 49.667 -179.001 57c5.33301 -150.667 42 -283 110 -397c-68 -114.667 -104.667 -247.334 -110 -398.001z" />
    <glyph glyph-name="bullet" unicode="&#x2022;" horiz-adv-x="1024" 
d="M216 718c0 82 28.999 151.666 86.999 208.999s128 86 210 86c81.333 0 150.833 -28.833 208.5 -86.5s86.5 -127.167 86.5 -208.5s-29.167 -151.166 -87.5 -209.499s-128.166 -87.5 -209.499 -87.5c-82 0 -151.667 29 -209 87s-86 128 -86 210z" />
    <glyph glyph-name="ellipsis" unicode="&#x2026;" horiz-adv-x="2048" 
d="M145 167l82.001 84c10 9.33301 19.667 14 29 14c8.66699 0 19 -5.33301 31 -16l80 -86c8 -10.667 12 -20.334 12 -29.001c0 -10 -4.66699 -20.333 -14 -31l-80 -88c-13.333 -13.333 -23 -20 -29 -20c-10.667 0 -20.334 4.66699 -29.001 14l-88 101
c-6.66699 8.66699 -10 17.334 -10 26.001c0 10 5.33301 20.333 16 31zM828.001 167l82.001 84c10 9.33301 19.667 14 29 14c8.66699 0 19 -5.33301 31 -16l80 -86c8 -10.667 12 -20.334 12 -29.001c0 -10 -4.66699 -20.333 -14 -31l-80 -88c-13.333 -13.333 -23 -20 -29 -20
c-10.667 0 -20.334 4.66699 -29.001 14l-88 101c-6.66699 8.66699 -10 17.334 -10 26.001c0 10 5.33301 20.333 16 31zM1511 167l82.001 84c10 9.33301 19.667 14 29 14c8.66699 0 19 -5.33301 31 -16l80 -86c8 -10.667 12 -20.334 12 -29.001
c0 -10 -4.66699 -20.333 -14 -31l-80 -88c-13.333 -13.333 -23 -20 -29 -20c-10.667 0 -20.334 4.66699 -29.001 14l-88 101c-6.66699 8.66699 -10 17.334 -10 26.001c0 10 5.33301 20.333 16 31z" />
    <glyph glyph-name="guilsinglleft" unicode="&#x2039;" horiz-adv-x="631" 
d="M174 479l342 303h14v-37l-205 -266l205 -266v-37h-14z" />
    <glyph glyph-name="guilsinglright" unicode="&#x203a;" horiz-adv-x="631" 
d="M115 176h-14v37l205 266l-205 266v37h14l342 -303z" />
    <glyph glyph-name="fraction" unicode="&#x2044;" horiz-adv-x="342" 
d="M-342 -29l940 1461h84l-938 -1461h-86z" />
    <glyph glyph-name="fraction" unicode="&#x2215;" horiz-adv-x="342" 
d="M-342 -29l940 1461h84l-938 -1461h-86z" />
    <glyph glyph-name="franc" unicode="&#x20a3;" 
d="M247 357h-194.001v60h194v732c0 156.667 -34.333 235 -103 235h-96v50h915l103 -231h-49c-39.333 121.333 -102.666 182 -189.999 182l-316 -1c-68 0 -102 -78.333 -102 -235v-352h361c66.667 0 100 21 100 63v58h50v-342h-50v60c0 41.333 -33.333 62 -100 62h-361v-281
h194v-60h-194v-72c0 -156.667 34 -235 102 -235h97v-50h-560v50h96c68.667 0 103 78.333 103 235v72z" />
    <glyph glyph-name="lira" unicode="&#x20a4;" 
d="M748 1347c-48 20.667 -101.333 30.999 -160 30.999h-2c-66.667 0 -130 -33.667 -190 -101c-56 -62 -84 -142.333 -84 -241c0 -10 0.333008 -20 1 -30c0 -70.667 11 -141.667 33 -213h380v-60h-360c8 -20 16.667 -40 26 -60h352v-60h-321c23.333 -42 35 -88 35 -138
c0 -107.333 -54 -232.333 -162 -375h402c86.667 0 149.667 44 189 132l49 -1l-103 -231h-719l1 50c124.667 158.667 187 298 187 418c0 51.333 -11.333 99 -34 143l-2 2h-172v60h143l-26 60h-135v60h113c-24 71.333 -36 135.666 -36 192.999
c0 150.667 41.167 266.334 123.5 347.001s185.833 121 310.5 121c50 0 111.833 -4.66699 185.5 -14s110.5 -20.666 110.5 -33.999v-161h-58c-3.33301 40.667 -29 74.667 -77 102z" />
    <glyph glyph-name="peseta" unicode="&#x20a7;" horiz-adv-x="2028" 
d="M409 1384v-661.999c2 -6 4.33301 -11.667 7 -17c27.333 -68 63.333 -119 108 -153c38 -29.333 76.667 -44 116 -44c6.66699 0 13 0.333008 19 1c45.333 5.33301 87.666 30.333 126.999 75s68.333 103.667 87 177c14.667 58 22 117.667 22 179
c0 16 -0.333008 31.667 -1 47c-4.66699 77.333 -21.167 150.166 -49.5 218.499s-64.5 116.5 -108.5 144.5c-37.333 23.333 -74.666 35 -111.999 35c-6.66699 0 -13.667 -0.333008 -21 -1h-194zM1496 908.001h-178.999v-685c0 -54 11.333 -93.667 34 -119
c18.667 -20.667 45.667 -33 81 -37l-71 192l49 1c36.667 -86.667 74.667 -144.667 114 -174c38 -29.333 80.333 -44 127 -44h7c61.333 0 111.666 17.333 150.999 52c39.333 35.333 59 80.666 59 135.999c0 68 -86.333 143.333 -259 226c-67.333 34.667 -115.333 72 -144 112
s-43 88.333 -43 145c0 80.667 24.333 145.334 73 194.001zM1039 910.001c-4.66699 -67.333 -20.6621 -131.999 -47.9951 -193.999c-33.333 -76 -80.333 -135.167 -141 -177.5s-124 -63.5 -190 -63.5c-66.667 0 -130.334 21.333 -191.001 64c-22 14.667 -42 31.667 -60 51
v-305c0 -156.667 34 -235 102 -235h97v-50h-560v50h96c68.667 0 103 78.333 103 235v864c0 156.667 -34.333 235 -103 235h-96v50h618c61.333 -1.33301 121.666 -22 180.999 -62c60.667 -41.333 108.334 -100.333 143.001 -177c33.333 -75.333 50.333 -154.333 51 -237h10
c144 0 216 118.333 216 355h50v-355h259c28 12.667 64.667 19.334 110 20.001h2c36 0 80.5 -4.5 133.5 -13.5s79.5 -20.167 79.5 -33.5v-159h-42c-2.66699 44 -24.5 80 -65.5 108s-85.5 42 -133.5 42c-42.667 0 -76.834 -12.167 -102.501 -36.5s-38.5 -56.5 -38.5 -96.5
c0 -72 78.333 -145.333 235 -220c81.333 -36.667 137.166 -75.834 167.499 -117.501s45.5 -92.834 45.5 -153.501c0 -93.333 -27.667 -170.333 -83 -231c-68 -56 -144 -84.667 -228 -86c-38.667 0 -73.667 3.66699 -105 11c-18.667 4 -37.334 6 -56.001 6
c-12 0 -24 -1 -36 -3c-18.667 -3.33301 -38.334 -5 -59.001 -5c-82.667 0 -140.5 19 -173.5 57s-52.167 96.667 -57.5 176h-1v687h-129z" />
    <glyph glyph-name="Euro" unicode="&#x20ac;" 
d="M140 372c-41.333 90 -66.6641 183.667 -75.9971 281h-108l17 60h87v29c0 10.667 0.333008 21 1 31h-71l17 60h58c9.33301 96.667 34.666 190.334 75.999 281.001c54 118.667 129.333 210 226 274s196 96 298 96c28.667 0 57.667 -2.66699 87 -8
c26.667 -6.66699 54 -16.334 82 -29.001c5.33301 -4 10.666 -6 15.999 -6c13.333 0 24.666 15 33.999 45h41l84 -281l-40 -1c-32.667 89.333 -78.667 148.666 -138 177.999c-28.667 14.667 -55.667 25.334 -81 32.001v3c-33.333 10.667 -67 16 -101 16
c-11.333 0 -22.666 -0.666992 -33.999 -2c-80 -8 -155.333 -45.833 -226 -113.5s-123 -158.834 -157 -273.501c-21.333 -69.333 -34.333 -139.666 -39 -210.999h706l-17 -60h-692c0 -20 0.666992 -40 2 -60h674l-17 -60h-652c11.333 -105.333 39 -204.666 83 -297.999
c49.333 -104.667 113.666 -183.334 192.999 -236.001c68 -45.333 140 -68.333 216 -69c124 2 209.333 32.333 256 91c49.333 60.667 74 122.334 74 185.001h48v-143c0 -46.667 -37 -89 -111 -127c-70 -36 -159 -54.667 -267 -56c-120.667 0 -229.167 32.667 -325.5 98
s-170.833 156.666 -223.5 273.999z" />
    <glyph glyph-name="afii61352" unicode="&#x2116;" horiz-adv-x="2271" 
 />
    <glyph glyph-name="trademark" unicode="&#x2122;" horiz-adv-x="1497" 
 />
    <glyph glyph-name="partialdiff" unicode="&#x2202;" 
d="M232 537c0 -27.333 1.66504 -53.668 4.99805 -79.001c9.33301 -81.333 29.833 -158 61.5 -230s71.167 -127 118.5 -165c42.667 -35.333 85.334 -53 128.001 -53c4 0 8.33301 0.333008 13 1c46.667 3.33301 89.167 26.833 127.5 70.5s65.166 103.5 80.499 179.5
c10.667 48.667 16 98.334 16 149.001c0 28 -1.66699 56.333 -5 85c-9.33301 81.333 -30.166 158.5 -62.499 231.5s-72.166 128.167 -119.499 165.5c-43.333 33.333 -86 50 -128 50h-11c-45.333 -3.33301 -87.333 -26.5 -126 -69.5s-66 -102.5 -82 -178.5
c-10.667 -56 -16 -108.333 -16 -157zM936.998 476.998c0 -88 -18.835 -171.669 -56.502 -251.002s-90.667 -141 -159 -185s-139.833 -66 -214.5 -66s-146.167 22 -214.5 66s-121.333 105.667 -159 185s-56.5 163 -56.5 251c0 87.333 19.333 171 58 251
s92.334 141.667 161.001 185s139 65 211 65c72.667 0 143.334 -21.667 212.001 -65c19.333 -12 37.333 -25.667 54 -41c-56 156.667 -133.833 282.334 -233.5 377.001s-208.5 146.334 -326.5 155.001v55c204 0 375.667 -95 515 -285s209 -422.333 209 -697z" />
    <glyph glyph-name="Delta" unicode="&#x2206;" horiz-adv-x="1081" 
d="M514 1195l-406 -1072h801zM547 1434l526 -1434h-1067z" />
    <glyph glyph-name="product" unicode="&#x220f;" horiz-adv-x="1515" 
d="M511 1384c-68 0 -102 -78.333 -102 -235v-1281c0 -156.667 34 -235 102 -235h97v-51h-560v51h96c68.667 0 103 78.333 103 235v1281c0 156.667 -34.333 235 -103 235h-96v50h1419v-50h-97c-68 0 -102 -78.333 -102 -235v-1281c0 -156.667 34 -235 102 -235h97v-50h-560
v50h96c68.667 0 103 78.333 103 235v1281c0 156.667 -34.333 235 -103 235h-492z" />
    <glyph glyph-name="summation" unicode="&#x2211;" horiz-adv-x="1206" 
d="M1059 548l-788 -914h635c86.667 0 149.667 60.667 189 182h49l-103 -232h-921v50c41.333 0 76.666 17.667 105.999 53l663 781l-663 859c-29.333 38 -64.666 57 -105.999 57v50h921l103 -232h-49c-39.333 121.333 -102.333 182 -189 182h-485z" />
    <glyph glyph-name="minus" unicode="&#x2212;" 
d="M87 647v140h839l1 -1v-139h-840z" />
    <glyph glyph-name="radical" unicode="&#x221a;" 
d="M181 0l-164 359l74 35l85 -185l728 1470h150v-60h-72z" />
    <glyph glyph-name="infinity" unicode="&#x221e;" 
d="M439 755c-10 68.667 -34.666 113 -73.999 133c-30.667 14.667 -58.667 22 -84 22c-8 0 -15.667 -0.666992 -23 -2c-32.667 -6.66699 -63.5 -21.5 -92.5 -44.5s-50.833 -51.167 -65.5 -84.5c-13.333 -30.667 -20 -60.667 -20 -90v-8c1.33301 -32 10.5 -61.667 27.5 -89
s40.833 -46.666 71.5 -57.999c19.333 -7.33301 39.666 -11 60.999 -11c10.667 0 21.667 1 33 3c31.333 6.66699 61.5 21.167 90.5 43.5s54.167 84.166 75.5 185.499zM466.001 687c8 -64 39.333 -115 94 -153c46 -32 87 -48 123 -48c7.33301 0 14.333 0.666992 21 2
c41.333 8 80.5 25.333 117.5 52s65.167 60.334 84.5 101.001c17.333 36 26 72 26 108v11c-1.33301 40 -13.166 76.167 -35.499 108.5s-52.833 55.166 -91.5 68.499c-24.667 8.66699 -50 13 -76 13c-14.667 0 -29.334 -1.33301 -44.001 -4c-44.667 -6 -87 -26.667 -127 -62
s-70.667 -101 -92 -197zM450.001 827c6 23.333 13 46.335 21 69.002c22.667 58.667 54.334 104.334 95.001 137.001s83.334 49 128.001 49s87.334 -16 128.001 -48s72.334 -77 95.001 -135s34 -118.667 34 -182s-11.333 -124 -34 -182s-54.334 -103 -95.001 -135
s-83.334 -48 -128.001 -48s-87.334 16.333 -128.001 49s-72.334 78 -95.001 136c-8 23.333 -15 46.666 -21 69.999c-3.33301 -14 -7.33301 -27.667 -12 -41c-18 -48.667 -42.667 -86.334 -74 -113.001s-64.333 -40 -99 -40s-68 13.667 -100 41s-56.5 65.166 -73.5 113.499
s-25.5 98.166 -25.5 149.499c0 50.667 8.5 100.334 25.5 149.001s41.5 86.667 73.5 114s65.333 41 100 41s67.667 -13.333 99 -40s56 -64 74 -112c4.66699 -14 8.66699 -28 12 -42z" />
    <glyph glyph-name="integral" unicode="&#x222b;" horiz-adv-x="665" 
d="M-12 -281c-40 0 -59.9971 9.66699 -59.9971 29v159h36c0.666992 -28.667 12.167 -50.167 34.5 -64.5s43.5 -21.5 63.5 -21.5h1c54.667 0 93 54 115 162c21.333 108 34.666 213.333 39.999 316l70 734l8 62c18 158.667 63 301.834 135 429.501s150 191.5 234 191.5
c40 0 60 -9.66699 60 -29v-159h-36c-0.666992 28.667 -12.334 50.167 -35.001 64.5s-43.667 21.5 -63 21.5c-47.333 0 -86 -51.833 -116 -155.5s-46.333 -224.834 -49 -363.501l-73 -767c-13.333 -154 -56.833 -294 -130.5 -420s-151.834 -189 -234.501 -189z" />
    <glyph glyph-name="approxequal" unicode="&#x2248;" 
d="M923 1053l-0.00195312 -156c-42 -48 -82.667 -80.5 -122 -97.5s-78 -25.5 -116 -25.5c-40 0 -99.167 16.167 -177.5 48.5s-137.166 48.5 -176.499 48.5c-34 0 -69.833 -9.33301 -107.5 -28s-80.834 -56 -129.501 -112v156c42.667 48.667 83.667 81.667 123 99
s77.333 26 114 26c42.667 0 103.167 -16.5 181.5 -49.5s135.833 -49.5 172.5 -49.5c34.667 0 70.834 9.33301 108.501 28s80.834 56 129.501 112zM922.998 705l-0.00195312 -156c-42 -48 -82.667 -80.5 -122 -97.5s-78 -25.5 -116 -25.5c-40 0 -99.167 16.167 -177.5 48.5
s-137.166 48.5 -176.499 48.5c-34 0 -69.833 -9.33301 -107.5 -28s-80.834 -56 -129.501 -112v156c42.667 48.667 83.667 81.667 123 99s77.333 26 114 26c42.667 0 103.167 -16.5 181.5 -49.5s135.833 -49.5 172.5 -49.5c34.667 0 70.834 9.33301 108.501 28
s80.834 56 129.501 112z" />
    <glyph glyph-name="lessequal" unicode="&#x2264;" 
d="M927 1074l-625 -359l625 -355v-167l-840 481v83l840 484v-167zM87 1v140h839l1 -1v-139h-840z" />
    <glyph glyph-name="greaterequal" unicode="&#x2265;" 
d="M87 1241l840 -484v-83l-840 -481v167l625 355l-625 359v167zM87 2v140h839l1 -1v-139h-840z" />
    <glyph glyph-name="uniF001" unicode="&#xf001;" horiz-adv-x="1073" 
 />
    <glyph glyph-name="uniF001" unicode="&#xfb01;" horiz-adv-x="1073" 
 />
    <glyph glyph-name="uniF002" unicode="&#xf002;" horiz-adv-x="1081" 
 />
    <glyph glyph-name="uniF002" unicode="&#xfb02;" horiz-adv-x="1081" 
 />
    <glyph glyph-name=".null" horiz-adv-x="0" 
 />
    <glyph glyph-name="nonmarkingreturn" horiz-adv-x="508" 
 />
  </font>
</defs>
</svg>
